Ивановский Торрент трекер
Яндекс.Погода
 

[Цитировать]
mihis

Последний бронепоезд4 серии-Год выпуска: 2006
Страна: Централ Партнёршип, Россия, Беларусь
Жанр: Боевик, военный, исторический
Продолжительность: 4 x ~ 00:52:23
Перевод: Оригинал
Субтитры: нет
Режиссер: Зиновий Ройзман
В ролях: Андрей Панин, Андрей Соколов, Денис Никифоров, Екатерина Редникова, Марина Александрова, Иван Кокорин
Описание: Напряженные события картины отсылают к первым дням Великой Отечественной войны, когда на помощь русским военным частям, попавшим в окружение, был отправлен мощный суперсовременный бронепоезд.
Но бронепоезд захвачен немцами и бойцы идут на смертельный риск, чтобы отбить бронепоезд и вернуть последнюю надежду на спасение своих близких и собственной жизни.
-Качество: DVDRip
Формат: AVI
Видео кодек: XviD
Аудио кодек: AC3
Видео: 672x368 (1.83:1), 25 fps, XviD MPEG-4 ~1532 kbps avg, 0.25 bit/pixel
Аудио: 48 kHz, AC3 Dolby Digital, 3/2 (L,C,R,l,r) + LFE ch, ~448.00 kbps avg

Подробное описание

Михаил Романов (Лесоруб) — бывший генерал-майор, попавший под нож сталинских чисток в армии и отправленный в лагеря. В начале войны его, разжалованного в рядовые, отправляют на фронт в Белоруссию. В составе подкрепления он следует в расположение 63-го стрелкового корпуса, только что попавшего в окружение в районе реки Друть.
Корпусом командует старый друг Романова генерал-майор Леонид Мальцев. В прологе фильма немецкая диверсионная группа, возглавляемая подполковником Херманном захватывает стратегический мост через реку, отрезав корпусу последнюю связь с частями регулярной армии. Командир группы принимает решение внедриться в штаб Мальцева и подсаживается на поезд с подкреплением, на котором следует Романов. Под видом старшего лейтенанта войск связи Шевцова он внедряется в штаб Мальцева.
Тем временем вторая немецкая диверсионная группа захватывает батарею прикрытия станции, куда должен прийти поезд с подреплением и когда поезд прибывает на станцию, открывает огонь и уничтожает большую часть прибывших солдат. Романов со вторым заключенным (Лазарь), машинистом поезда Фадеевым и бойцом из охранения спасаются, уничтожают диверсантов на батарее и угоняют оставшийся целым локомотив.
Генералу Мальцеву нужно выводить остатки корпуса из окружения и для уничтожения немцев на мосту он принимает решение задействовать свой последний резерв — стоящий в укрытии около станции Ольховка бронепоезд. Для встречи бронепоезда на станции, он направляет туда своего помощника полковника Гирявого. С ним вызывается ехать Херманн-Шевцов, который по дороге берет Гирявого в плен и доставляет к немцам, где от начальника политического отдела удается получить информацию о времени подхода поезда. На станцию немедленно выдвигается отряд немцев. Гирявого прихватывают с собой — он является для немцев ключевой фигурой в плане по захвату поезда.
Тем временем, у сбежавшего Романова и его новых друзей заканчиваются дрова и паровоз встает. Идя вдоль железной дороги, они встречаются с идущим в Ольховку бронепоездом и команда их арестовывает.
Встретив бронепоезд, полковник Гирявой под предлогом оглашения приказа Сталина снимает с бронепоезда всю команду, которую тут же расстреливают фашисты.
Романов видит расстрел команды бронепоезда и принимает решение угнать его. На уходящий поезд успевает сесть Гирявой, который сталкивается с Романовым нос к носу. Романов узнает полковника — ведь это по его доносу он попал в тюрьму. На следующий день Романов выводит Гирявого в лес и за сдачу бронепоезда расстреливает, предварительно получив у него информацию, что бронепоезд должен в условленное время любой ценой выйти на мост и огнем поддержать прорывающиеся части корпуса.
У Херманна в свою очередь стоит другая задача — не допустить выхода бронепоезда на мост и он начинает за ним охоту. Несколько раз поезд практически оказывается под угрозой захвата диверсионной группой, но каждый раз Романову, принявшему командование удается увести его из-под носа у немцев. Тогда обманным путем Херманн проникает на борт поезда. Параллельно экипаж освобождает пленных солдат на одной из станции, среди которых оказывается несколько рецидивистов. Они полагают, что Романов просто сдаст их в особый отдел после прибытия и принимают решение сами захватить бронепоезд. Но их очень удачно берет под опеку Херманн, предлагая им действовать совместно. Впятером им практически удается захватить поезд, однако благодаря действиям экипажа преступники уничтожаются, а Херманн спрыгивает с поезда. Романов, к тому времени уже понявший, что Херманн — немецкий диверсант ("староват он для лейтенанта"), дает машинисту указание полным ходом идти на мост и спрыгивает с поезда вслед за Херманном. После непродолжительной погони и драки Романову удается нейтрализовать диверсанта.
Поезд тем временем к назначенному времени не успевает выйти на мост и Мальцев принимает решение начать прорыв без поддержки. Две атаки заканчиваются неудачно, но к началу третьей поезд все же въезжает на мост и огнем обеспечивает прорыв.

MediaInfo

Общее
Полное имя : G:\Posledniy_Bronepoezd\1.avi
Формат : AVI
Формат/Информация : Audio Video Interleave
Размер файла : 746 Мбайт
Продолжительность : 52 м.
Общий поток : 1990 Кбит/сек
Программа кодирования : VirtualDubMod 1.5.10.2 (build 2540/release)
Библиотека кодирования : VirtualDubMod build 2540/release
Видео
Идентификатор : 0
Формат : MPEG-4 Visual
Профиль формата : Advanced Simple@L5
Параметр BVOP формата : 2
Параметр QPel формата : Нет
Параметр GMC формата : Без точки перехода
Параметр матрицы формата : Выборочная
Режим смешивания : Сжатый битовый поток
Идентификатор кодека : XVID
Идентификатор кодека/Подсказка : XviD
Продолжительность : 52 м.
Битрейт : 1532 Кбит/сек
Ширина : 672 пикселя
Высота : 368 пикселей
Соотношение сторон : 16:9
Частота кадров : 25,000 кадров/сек
Цветовое пространство : YUV
Субдискретизация насыщенности : 4:2:0
Битовая глубина : 8 бит
Тип развёртки : Прогрессивная
Метод сжатия : С потерями
Бит/(Пиксели*Кадры) : 0.248
Размер потока : 574 Мбайт (77%)
Библиотека кодирования : XviD 63
Аудио
Идентификатор : 1
Формат : AC-3
Формат/Информация : Audio Coding 3
Расширение режима : CM (complete main)
Идентификатор кодека : 2000
Продолжительность : 52 м.
Вид битрейта : Постоянный
Битрейт : 448 Кбит/сек
Каналы : 6 каналов
Расположение каналов : Front: L C R, Side: L R, LFE
Частота : 48,0 КГц
Битовая глубина : 16 бит
Метод сжатия : С потерями
Размер потока : 168 Мбайт (23%)
Выравнивание : Разделение по промежуткам
Продолжительность промежутка : 40 мс. (1,00 видеокадр)
Время предзагрузки промежутка : 500 мс.
Показать сообщения:    

Текущее время: 26-Сен 17:06

Часовой пояс: UTC - 1


Вы не можете начинать темы
Вы не можете отвечать на сообщения
Вы не можете редактировать свои сообщения
Вы не можете удалять свои сообщения
Вы не можете голосовать в опросах
Вы не можете прикреплять файлы к сообщениям
Вы не можете скачивать файлы

!ВНИМАНИЕ!
Сайт не предоставляет электронные версии произведений, а занимается лишь коллекционированием и каталогизацией ссылок, присылаемых и публикуемых на форуме нашими читателями. Если вы являетесь правообладателем какого-либо представленного материала и не желаете, чтобы ссылка на него находилась в нашем каталоге, свяжитесь с нами, и мы незамедлительно удалим ее. Файлы для обмена на трекере предоставлены пользователями сайта, и администрация не несет ответственности за их содержание. Просьба не заливать файлы, защищенные авторскими правами, а также файлы нелегального содержания!