Ивановский Торрент трекер
Яндекс.Погода
 

[Цитировать]
HUNTER

-Последние рыцари / Last Knights-«Битва за честь, война за справедливость» -Страна: Чехия, Корея Южная
Студия: Czech Anglo Productions, Luka Productions
Жанр: драма, боевик, приключения
Год выпуска: 2015
Мировая премьера: 3 апреля 2015
Российская премьера: 2 апреля 2015, «Top Film Distribution»
Дата выхода DVD: 2 июня 2015, «Lizard Cinema Trade»
Дата выхода Blu-Ray: 2 июня 2015, «Lizard Cinema Trade»
Продолжительность: 01:49:43
Перевод: Профессиональный (дублированный) [Лицензия]
Cубтитры: нет
Оригинальная аудиодорожка: нет-Режиссер: Казуаки Кирия / Kazuaki Kiriya-В ролях: Клайв Оуэн, Морган Фриман, Ан Сон Ги, Пак Си Ен, Аксель Хенни, Дэниэл Адегбойега, Шоре Агдашлу, Джеймс Бэбсон, Павел Бездек, Дэниэл Флейшер-Браун-Описание: Только одному человеку подвластно навести порядок в раздираемых распрями и утопающих в крови землях. Этот человек – король Барток. И теперь он предан и повержен. Его немногочисленные последователи, под предводительством падшего рыцаря отправляются в последнюю битву против врагов Бартока, чтобы восстановить честь и не позволить восторжествовать злу. В кровавой битве решится будущее королевства и то, кто именно будет им править. Не слишком велик груз, что опустился плечи одного, уже отчаявшегося, человека?-Бонусы: нет- -Релиз группы: -Качество: DVD5 R5
Формат: DVD-Video
Видео кодек: MPEG2
Аудио кодек: AC3
Видео: PAL 16:9 (720x576(0.401)) MPEG Video, 25,000 кадр/сек, 4160 Кбит/сек
Аудио: Russian (Dolby AC3, 6 ch) 448 Кбит/сек, 48,0 КГц--

DVDInfo

Title: Рабочий
Size: 3.51 Gb ( 3 684 890 KBytes ) - DVD-5
Enabled regions: 1, 2, 3, 4, 5, 6, 7, 8
VTS_01 :
Play Length: 00:00:10
Video: PAL 4:3 (720x576) VBR
Audio:
Not specified (Dolby AC3, 1 ch)
VTS_02 :
Play Length: 00:00:04
Video: PAL 16:9 (720x576) VBR, Auto Pan&Scan
Audio:
Not specified (Dolby AC3, 1 ch)
VTS_03 :
Play Length: 00:00:10
Video: PAL 16:9 (720x576) VBR, Auto Pan&Scan
Audio:
English (Dolby AC3, 2 ch)
Subtitles:
English
VTS_04 :
Play Length: 01:49:55
Video: PAL 16:9 (720x576) VBR, Auto Pan&Scan
Audio:
Russian (Dolby AC3, 6 ch)
VTS_05 :
Play Length: 00:00:10
Video: PAL 16:9 (720x576) VBR, Auto Pan&Scan
Audio:
English (Dolby AC3, 2 ch)
VTS_06 :
Play Length: 00:00:20
Video: PAL 4:3 (720x576) VBR
Audio:
English (Dolby AC3, 2 ch)
Menu Video:
PAL 4:3 (720x576) VBR
Auto Pan&Scan, Auto Letterboxed
Menu Audio:
Not specified (Dolby AC3, 1 ch)
Menu Subtitles:
Not specified
Menu Russian Language Unit :

MediaInfo

Общее
Полное имя : F:\Новинки 2015\Poslednie.rycari.2015.DVD5\VIDEO_TS\VTS_04_2.VOB
Формат : MPEG-PS
Размер файла : 1024 Мбайт
Продолжительность : 30 м.
Режим общего битрейта : Переменный
Общий поток : 4702 Кбит/сек
Видео
Идентификатор : 224 (0xE0)
Формат : MPEG Video
Версия формата : Version 2
Профиль формата : Main@Main
Параметр BVOP формата : Да
Параметр матрицы формата : Выборочная
Параметр GOP формата : Variable
Структура изображения : Frame
Продолжительность : 30 м.
Вид битрейта : Переменный
Битрейт : 4160 Кбит/сек
Максимальный битрейт : 8000 Кбит/сек
Ширина : 720 пикселей
Высота : 576 пикселей
Соотношение сторон : 16:9
Частота кадров : 25,000 кадров/сек
Стандарт вещания : PAL
Цветовое пространство : YUV
Субдискретизация насыщенности : 4:2:0
Битовая глубина : 8 бит
Тип развёртки : Чересстрочная
Порядок развёртки : Верхнее поле первое
Метод сжатия : С потерями
Бит/(Пиксели*Кадры) : 0.401
Временной код первого кадра : 00:33:07:20
Оригинал временного кода : Group of pictures header
Размер потока : 906 Мбайт (88%)
Аудио
Идентификатор : 189 (0xBD)-128 (0x80)
Формат : AC-3
Формат/Информация : Audio Coding 3
Расширение режима : CM (complete main)
Параметр Endianness формата : Big
Режим смешивания : DVD-Video
Продолжительность : 30 м.
Вид битрейта : Постоянный
Битрейт : 448 Кбит/сек
Каналы : 6 каналов
Расположение каналов : Front: L C R, Side: L R, LFE
Частота : 48,0 КГц
Метод сжатия : С потерями
Задержка видео : -840 мс.
Размер потока : 97,6 Мбайт (10%)

Скриншоты меню

Скриншоты фильма


-
-Раздача от группы:
Показать сообщения:    

Текущее время: 21-Сен 07:39

Часовой пояс: UTC - 1


Вы не можете начинать темы
Вы не можете отвечать на сообщения
Вы не можете редактировать свои сообщения
Вы не можете удалять свои сообщения
Вы не можете голосовать в опросах
Вы не можете прикреплять файлы к сообщениям
Вы не можете скачивать файлы

!ВНИМАНИЕ!
Сайт не предоставляет электронные версии произведений, а занимается лишь коллекционированием и каталогизацией ссылок, присылаемых и публикуемых на форуме нашими читателями. Если вы являетесь правообладателем какого-либо представленного материала и не желаете, чтобы ссылка на него находилась в нашем каталоге, свяжитесь с нами, и мы незамедлительно удалим ее. Файлы для обмена на трекере предоставлены пользователями сайта, и администрация не несет ответственности за их содержание. Просьба не заливать файлы, защищенные авторскими правами, а также файлы нелегального содержания!