Важное объявление!
У Нас Все раздачи мультитрекерные, при нуле пиров в релизах, можете смело вставать на закачку!
 
Автор Сообщение

HUNTER

Стаж:
4 года 9 месяцев
Сообщений:
65033

Репутация: 101

[+] [-]
Вне форума [Профиль] [ЛС]

Портрет Дориана Грея / The Picture of Dorian Gray-
Год выпуска: 1945
Страна: США
Жанр: драма
Продолжительность: 01:50:17
Перевод: Профессиональный (многоголосый закадровый) New Dream Media (Видеобаза)
Оригинальная аудиодорожка: Английская
Cубтитры: Английские (полные, для слабослышащих), греческие-Режиссер: Альберт Левин / Albert Lewin
В ролях: Джордж Сэндерс, Херд Хэтфилд, Донна Рид, Анджела Лэнсбери, Питер Лоуфорд, Лоуелл Гилмор, Ричард Фрайзер, Дуглас Уолтон, Мортон Лоури, Майлз Мандер-Описание:
По мотивам одноименного романа Оскара Уайльда.
Очаровательный и невинный Дориан Грей в компании циничного Гарри Уоттонома любуется своим великолепным портретом. Ослепленный своей красотой, юноша клянется, что отдаст свою душу за то, чтобы вечно быть молодым. Десятилетиями Дориан, ставший достойным учеником Гарри, хладнокровно наблюдает за тем, как его жестокость губит всех, кто любит его. Он все так же красив и юн, и лишь его портрет обезображивают бесчисленные шрамы порока. Став прекрасным чудовищем, Дориан уже не верит, что однажды ему придется заплатить за свои грехи страшную цену…-За дорожку спасибо torrents9999.
| IMDb | Сэмпл-Качество: BDRip 720p (DON)
Контейнер: MKV
Видео: x264, 986x720 (1.37:1), 23.976 fps, 7307 kbps
Аудио 1: Русский AC3 2.0, 48 kHz, 256 kbps
Аудио 2: Английский AC3 2.0, 48 kHz, 640 kbps
Аудио 3: Английский AAC 2.0, 48 kHz, 61 kbps — Комментарии
Формат субтитров: softsub (SRT)

Скриншоты

Source/DON/AMIABLE/WEBiOS(WEB-DL)



-

MI

nfo
Info
RUNTIME.......: 1h 50mn
SIZE..........: 5.81 GiB
VIDEO CODEC...: x264, CRF 17.3, L4.1
FRAMERATE.....: 23.976 fps
BITRATE.......: 7 163 Kbps
RESOLUTION....: 986x720
AUDIO ........: English 2.0ch AAC @ 171 Kbps (q=0.75)
AUDIO 2.......: English 2.0ch AAC (Commentary - Actress Angela Lansbury)
SUBTITLES.....: English,English(SDH),Greek
CHAPTERS/NAMED: Yes / No
SOURCE........: The Picture of Dorian Gray 1945 1080p Blu-ray AVC DTS-HD MA 2.0-DON(thanks Batistuta)
NOTES.........: Dirty lines fixed.
x264 info
profile High, level 4.1
x264 [info]: frame I:1024 Avg QP:17.28 size:112918
x264 [info]: frame P:28853 Avg QP:18.48 size: 56789
x264 [info]: frame B:128762 Avg QP:19.97 size: 33311
x264 [info]: consecutive B-frames: 0.9% 0.3% 1.8% 8.1% 17.6% 61.5% 7.5% 2.3%
x264 [info]: kb/s:7306.98
encoded 158639 frames, 3.916 fps, 7306.98 kb/s, 5763.4 MB
General
Unique ID : 178851687250448375048305531542496598707 (0x868D94FE79A06AB98D71D42E414FDAB3)
Complete name : The.Picture.of.Dorian.Gray.1945.720p.BluRay.x264-DON.mkv
Format : Matroska
Format version : Version 2
File size : 6.37 GiB
Duration : 1h 50mn
Overall bit rate : 8 267 Kbps
Movie name : The Picture Of Dorian Gray / Портрет Дориана Грея (1945) – RuTracker
Encoded date : UTC 2014-12-09 18:52:52
Writing application : mkvmerge v7.0.0 ('Where We Going') 64bit built on Jun 9 2014 15:16:27
Writing library : libebml v1.3.0 + libmatroska v1.4.1
Attachements : cover.jpg
Video
ID : 1
Format : AVC
Format/Info : Advanced Video Codec
Format profile : High@L4.1
Format settings, CABAC : Yes
Format settings, ReFrames : 11 frames
Codec ID : V_MPEG4/ISO/AVC
Duration : 1h 50mn
Width : 986 pixels
Height : 720 pixels
Display aspect ratio : 4:3
Frame rate mode : Constant
Frame rate : 23.976 fps
Color space : YUV
Chroma subsampling : 4:2:0
Bit depth : 8 bits
Scan type : Progressive
Title : The.Picture.of.Dorian.Gray.1945.720p.BluRay.AAC2.0.x264-DON
Writing library : x264 core 142 r2431+42 c69a006 tMod [8-bit@all X86_64]
Encoding settings : cabac=1 / ref=11 / deblock=1:-3:-3 / analyse=0x3:0x133 / me=tesa / subme=10 / psy=1 / fade_compensate=0.00 / psy_rd=1.05:0.00 / mixed_ref=1 / me_range=32 / chroma_me=1 / trellis=2 / 8x8dct=1 / cqm=0 / deadzone=21,11 / fast_pskip=0 / chroma_qp_offset=-2 / threads=12 / lookahead_threads=2 / sliced_threads=0 / nr=0 / decimate=1 / interlaced=0 / bluray_compat=0 / constrained_intra=0 / fgo=0 / bframes=7 / b_pyramid=2 / b_adapt=2 / b_bias=0 / direct=3 / weightb=1 / open_gop=0 / weightp=2 / keyint=241 / keyint_min=23 / scenecut=40 / intra_refresh=0 / rc_lookahead=60 / rc=crf / mbtree=0 / crf=17.3000 / qcomp=0.70 / qpmin=0:0:0 / qpmax=69:69:69 / qpstep=4 / vbv_maxrate=50000 / vbv_bufsize=62500 / crf_max=0.0 / nal_hrd=none / filler=0 / ip_ratio=1.30 / pb_ratio=1.20 / aq=4:0.70 / aq-sensitivity=10.00 / aq-factor=1.00:1.00:1.00 / aq2=0 / aq3=0
Language : English
Default : Yes
Forced : No
Audio #1
ID : 2
Format : AC-3
Format/Info : Audio Coding 3
Mode extension : CM (complete main)
Format settings, Endianness : Big
Codec ID : A_AC3
Duration : 1h 50mn
Bit rate mode : Constant
Bit rate : 256 Kbps
Channel(s) : 2 channels
Channel positions : Front: L R
Sampling rate : 48.0 KHz
Bit depth : 16 bits
Compression mode : Lossy
Stream size : 202 MiB (3%)
Title : MVO – New Dream Media
Language : Russian
Default : Yes
Forced : No
Audio #2
ID : 3
Format : AC-3
Format/Info : Audio Coding 3
Mode extension : CM (complete main)
Format settings, Endianness : Big
Codec ID : A_AC3
Duration : 1h 50mn
Bit rate mode : Constant
Bit rate : 640 Kbps
Channel(s) : 2 channels
Channel positions : Front: L R
Sampling rate : 48.0 KHz
Bit depth : 16 bits
Compression mode : Lossy
Stream size : 505 MiB (8%)
Title : Original
Language : English
Default : No
Forced : No
Audio #3
ID : 4
Format : AAC
Format/Info : Advanced Audio Codec
Format profile : LC
Codec ID : A_AAC
Duration : 1h 50mn
Channel(s) : 2 channels
Channel positions : Front: L R
Sampling rate : 48.0 KHz
Compression mode : Lossy
Title : Commentary - Actress Angela Lansbury
Language : English
Default : No
Forced : No
Text #1
ID : 5
Format : UTF-8
Codec ID : S_TEXT/UTF8
Codec ID/Info : UTF-8 Plain Text
Language : English
Default : No
Forced : No
Text #2
ID : 6
Format : UTF-8
Codec ID : S_TEXT/UTF8
Codec ID/Info : UTF-8 Plain Text
Title : SDH
Language : English
Default : No
Forced : No
Text #3
ID : 7
Format : UTF-8
Codec ID : S_TEXT/UTF8
Codec ID/Info : UTF-8 Plain Text
Language : Greek
Default : No
Forced : No
Menu
00:00:00.000 : en:Chapter 01
00:01:39.099 : en:Chapter 02
00:06:19.379 : en:Chapter 03
00:11:03.663 : en:Chapter 04
00:13:09.747 : en:Chapter 05
00:18:36.115 : en:Chapter 06
00:23:34.871 : en:Chapter 07
00:25:43.500 : en:Chapter 08
00:29:04.701 : en:Chapter 09
00:33:07.986 : en:Chapter 10
00:38:00.278 : en:Chapter 11
00:43:36.614 : en:Chapter 12
00:48:24.902 : en:Chapter 13
00:54:46.783 : en:Chapter 14
00:57:25.400 : en:Chapter 15
01:03:25.760 : en:Chapter 16
01:08:27.061 : en:Chapter 17
01:12:09.325 : en:Chapter 18
01:15:55.551 : en:Chapter 19
01:21:23.879 : en:Chapter 20
01:23:20.537 : en:Chapter 21
01:26:29.142 : en:Chapter 22
01:30:38.391 : en:Chapter 23
01:34:13.606 : en:Chapter 24
01:38:34.867 : en:Chapter 25
01:43:16.148 : en:Chapter 26
01:48:12.486 : en:Chapter 27
01:49:19.553 : en:Chapter 28

_________________
Показать сообщения:    

Текущее время: Сегодня 00:27

Часовой пояс: GMT



Вы не можете начинать темы
Вы не можете отвечать на сообщения
Вы не можете редактировать свои сообщения
Вы не можете удалять свои сообщения
Вы не можете голосовать в опросах
Вы не можете прикреплять файлы к сообщениям
Вы не можете скачивать файлы