Важное объявление!
У Нас Все раздачи мультитрекерные, при нуле пиров в релизах, можете смело вставать на закачку!
 
Автор Сообщение

HUNTER

Стаж:
4 года 7 месяцев
Сообщений:
61590

Репутация: 101

[+] [-]
Вне форума [Профиль] [ЛС]

Поп Америка : American Pop«All those years, all those dreams, all those sons... one of them is going to be a star»
Год выпуска: 1981
Страна: США
Жанр: мультфильм, драма, музыка
Продолжительность: 01:35:44
Перевод: Профессиональный (дублированный)
русские субтитры: нет- Режиссёр: Ральф Бакши : Ralph Bakshi- Роли озвучивали: Рон Томпсон, Мьюз Смолл, Джерри Холлэнд, Лиза Джейн Перски, Джеффри Липпа, Роз Келли, Фрэнк ДеКова, Ричард Сингер, Эльза Рэйвен, Бен Фроммер
Роли дублировали: Илья Хвостиков, Михаил Тихонов, Ольга Голованова, Василий Дахненко, Петр Тобилевич- Описание: Драматическая история четырёх поколений еврейской семьи музыкантов из России, показанная параллельно с историей Американской популярной музыки 20-го столетия, в сопровождении Боба Дилана, Лу Рида, Фила Силверса и др.- релиз:
- за предоставленный дубляж спасибо Zuich32, который ему предоставил его хороший приятель Beer kolesik Drinkers!
- работа со звуком xfiles, за что ему огромное спасибо!- Качество: WEB-DL 1080p
Формат: MKV
Видео кодек: AVC
Аудио кодек: AC3
Видео: 1980x1080 , 23,976 fps, ~4 857 kbps avg, 0.098 bit/pixel
Аудио #1: [RUS] 48 kHz, AC3 Dolby Digital, 2/0 (L,R) ch, ~192 kbps kbps avg
Аудио #2: [ENG] 48 kHz, AC3 Dolby Digital, 2/0 (L,R) ch, ~192 kbps kbps avg
субтитры: английские
навигация по главам: 28 глав (именные)

MediaInfo

Общее
Уникальный идентификатор : 235159962178011357342901854722272235113 (0xB0EA294A2AF2412E83BC02C247C38E69)
Полное имя : D:\Im\Поп Америка\American Pop.1981.WEB-DL 1080p.mkv
Формат : Matroska
Версия формата : Version 4 / Version 2
Размер файла : 3,58 Гбайт
Продолжительность : 1 ч. 35 м.
Общий поток : 5348 Кбит/сек
Название фильма : American Pop.1981.WEB-DL 1080p [-Azureus-]
Дата кодирования : UTC 2014-02-25 21:53:15
Программа кодирования : mkvmerge v6.7.0 ('Back to the Ground') 32bit built on Jan 8 2014 15:03:17
Библиотека кодирования : libebml v1.3.0 + libmatroska v1.4.1
Видео
Идентификатор : 1
Формат : AVC
Формат/Информация : Advanced Video Codec
Профиль формата : High@L4.0
Параметр CABAC формата : Да
Параметр ReFrames формата : 4 кадра
Идентификатор кодека : V_MPEG4/ISO/AVC
Продолжительность : 1 ч. 35 м.
Битрейт : 4857 Кбит/сек
Ширина : 1920 пикселей
Высота : 1080 пикселей
Соотношение сторон : 16:9
Режим частоты кадров : Постоянный
Частота кадров : 23,976 кадра/сек
Цветовое пространство : YUV
Субдискретизация насыщенности : 4:2:0
Битовая глубина : 8 бит
Тип развёртки : Прогрессивная
Бит/(Пиксели*Кадры) : 0.098
Размер потока : 3,25 Гбайт (91%)
Язык : English
Default : Да
Forced : Нет
Основные цвета : BT.709
Характеристики трансфера : BT.709
Коэффициенты матрицы : BT.709
Аудио #1
Идентификатор : 2
Формат : AC-3
Формат/Информация : Audio Coding 3
Расширение режима : CM (complete main)
Параметр Endianness формата : Big
Идентификатор кодека : A_AC3
Продолжительность : 1 ч. 35 м.
Вид битрейта : Постоянный
Битрейт : 192 Кбит/сек
Каналы : 2 канала
Расположение каналов : Front: L R
Частота : 48,0 КГц
Битовая глубина : 16 бит
Метод сжатия : С потерями
Размер потока : 131 Мбайт (4%)
Заголовок : DUB
Язык : Russian
Default : Да
Forced : Нет
Аудио #2
Идентификатор : 3
Формат : AC-3
Формат/Информация : Audio Coding 3
Профиль формата : Dolby Digital
Расширение режима : CM (complete main)
Параметр Endianness формата : Big
Идентификатор кодека : A_AC3
Продолжительность : 1 ч. 35 м.
Вид битрейта : Постоянный
Битрейт : 192 Кбит/сек
Каналы : 2 канала
Расположение каналов : Front: L R
Частота : 48,0 КГц
Битовая глубина : 16 бит
Метод сжатия : С потерями
Размер потока : 131 Мбайт (4%)
Заголовок : ENG
Язык : English
Default : Нет
Forced : Нет
Текст
Идентификатор : 4
Формат : UTF-8
Идентификатор кодека : S_TEXT/UTF8
Идентификатор кодека/Информация : UTF-8 Plain Text
Заголовок : Eng Sub
Язык : English
Default : Нет
Forced : Нет
Меню
00:00:00.000 : en:Start
00:03:33.000 : en:Aneynu
00:05:35.000 : en:I Don't Care
00:07:58.000 : en:Maple Leaf Rag
00:12:05.000 : en:Smiles
00:14:21.000 : en:Over There
00:16:26.000 : en:Swanee
00:19:20.000 : en:Look for the Silver Lining
00:22:59.000 : en:Charleston
00:24:57.000 : en:Bill
00:27:15.000 : en:Sweet Georgia Brown
00:29:50.000 : en:Our Love is Here to Stay
00:33:55.000 : en:Sing, Sing, Sing
00:35:59.000 : en:Lilli Marlene
00:41:09.000 : en:Take Five
00:43:39.000 : en:Turn Me Loose
00:47:28.000 : en:You Send Me
00:50:56.000 : en:This Train
00:54:09.000 : en:California Dreamin'
01:00:00.000 : en:Somebody to Love
01:04:05.000 : en:People are Strange
01:05:42.000 : en:Up, Up, and Away
01:07:34.000 : en:Purple Haze
01:11:01.000 : en:Summertime
01:15:38.000 : en:I'm Waiting for the Man
01:22:01.000 : en:Hell is for Children
01:27:08.000 : en:Night Moves
01:29:07.000 : en:Blue Suede Shoes
____________________________________________
Стою на раздаче до 5 дней.
Просьба скачавшим как можно дольше не покидать раздачу!
ВСЕМ ПРИЯТНОГО ПРОСМОТРА!_________________________________________

_________________
Показать сообщения:    

Текущее время: Сегодня 17:29

Часовой пояс: GMT



Вы не можете начинать темы
Вы не можете отвечать на сообщения
Вы не можете редактировать свои сообщения
Вы не можете удалять свои сообщения
Вы не можете голосовать в опросах
Вы не можете прикреплять файлы к сообщениям
Вы не можете скачивать файлы
Наши партнеры: интернет магазин Ивановского трикотажа textilla.ru