Ивановский Торрент трекер
Яндекс.Погода
Статистика раздачи
Размер:  4.18 GB   |    Зарегистрирован:  1 год 1 месяц   |    Скачан:  0 раз

Полного источника не было: Никогда

 
     
 
 
 

[Цитировать]
HUNTER

Поп-звезда: Не переставай, не останавливайся / Popstar: Never Stop Never Stopping
Страна: США
Студия: Apatow Productions
Жанр: комедия, музыка
Год выпуска: 2016
Продолжительность: 01:26:25
Перевод: Профессиональный (дублированный) iTunes
Cубтитры: Rus, Eng
Оригинальная аудиодорожка: английский
Режиссер: Акива Шаффер, Йорма Такконе / Akiva Schaffer, Jorma Taccone
В ролях: Энди Сэмберг, Йорма Такконе, Акива Шаффер, Сара Силверман, Тим Медоуз, Майя Рудольф, Джоан Кьюсак, Имоджен Путс, Крис Редд
Описание: С самого детства Коннер был без ума от музыки. Ещё ребёнком он с двумя лучшими друзьями создал группу «The Style Boyz». Группа стала очень популярной, и Коннор зазвездился, решив, что успех группы — исключительно его заслуга. Один друг детства вовсе перестал с ним разговаривать, другой работает у Коннера диджеем. А лучшие друзья суперзвезды — его менеджер, организатор вечеринок и прочие непонятные личности, которым бы только тусоваться с утра до ночи. И вот приближается великий день — выход нового сольного альбома. Но, как известно, чем выше ты взлетел, тем больнее будет падать.

Тип релиза: BDRip 720p
Контейнер: MKV
Видео: MPEG-4 AVC, 5087 Кбит/с, 1280x534, 23,976 fps
Аудио: Rus, AC3, 192 kb/s (2 ch), 48 kHz
Аудио 2: Eng, DTS, 1510 kb/s (6 ch), 48 kHz
Формат субтитров: softsub (SRT)

MediaInfo

Format : Matroska
Format version : Version 4 / Version 2
File size : 4.18 GiB
Duration : 1h 26mn
Overall bit rate : 6 926 Kbps
Movie name : Поп-звезда. (Tonik)
Encoded date : UTC 2016-10-14 14:38:18
Writing application : mkvmerge v7.1.0 ('Good Love') 64bit built on Jul 27 2014 13:06:55
Writing library : libebml v1.3.0 + libmatroska v1.4.1
_STATISTICS_WRITING_APP : mkvmerge v7.1.0 ('Good Love') 64bit built on Jul 27 2014 13:06:55
_STATISTICS_WRITING_DATE_UTC : 2016-10-14 14:38:18
_STATISTICS_TAGS : BPS DURATION NUMBER_OF_FRAMES NUMBER_OF_BYTES
DURATION : 01:26:29.632000000
NUMBER_OF_FRAMES : 162176
NUMBER_OF_BYTES : 124551168
Video
ID : 1
Format : AVC
Format/Info : Advanced Video Codec
Format profile : High@L4.1
Format settings, CABAC : Yes
Format settings, ReFrames : 12 frames
Codec ID : V_MPEG4/ISO/AVC
Duration : 1h 26mn
Bit rate : 5 087 Kbps
Width : 1 280 pixels
Height : 534 pixels
Display aspect ratio : 2.40:1
Frame rate mode : Constant
Frame rate : 23.976 fps
Color space : YUV
Chroma subsampling : 4:2:0
Bit depth : 8 bits
Scan type : Progressive
Bits/(Pixel*Frame) : 0.310
Stream size : 3.07 GiB (73%)
Writing library : x264 core 148 r2705 3f5ed56
Encoding settings : cabac=1 / ref=12 / deblock=1:-3:-3 / analyse=0x3:0x133 / me=umh / subme=10 / psy=1 / psy_rd=1.00:0.00 / mixed_ref=1 / me_range=64 / chroma_me=1 / trellis=2 / 8x8dct=1 / cqm=0 / deadzone=21,11 / fast_pskip=0 / chroma_qp_offset=-2 / threads=6 / lookahead_threads=1 / sliced_threads=0 / nr=0 / decimate=0 / interlaced=0 / bluray_compat=0 / constrained_intra=0 / bframes=9 / b_pyramid=2 / b_adapt=2 / b_bias=0 / direct=3 / weightb=1 / open_gop=0 / weightp=2 / keyint=250 / keyint_min=24 / scenecut=40 / intra_refresh=0 / rc_lookahead=60 / rc=crf / mbtree=0 / crf=18.2 / qcomp=0.65 / qpmin=0 / qpmax=69 / qpstep=4 / vbv_maxrate=62500 / vbv_bufsize=78125 / crf_max=0.0 / nal_hrd=none / filler=0 / ip_ratio=1.25 / pb_ratio=1.18 / aq=3:0.73 / zones=0,735,crf=14.3/4522,4586,crf=13.3/5607,5658,crf=13.3/6200,6256,crf=15.3/9311,9512,crf=16.3/9677,9700,crf=16.3/19738,20360,crf=16.3/76499,76530,crf=13.3/79371,79517,crf=14.8/84327,84389,crf=14.3/118600,118672,crf=14.3/118672,119742,crf=22/121205,124436,crf=22
Language : English
Default : Yes
Forced : No
_STATISTICS_WRITING_APP : mkvmerge v7.1.0 ('Good Love') 64bit built on Jul 27 2014 13:06:55
_STATISTICS_WRITING_DATE_UTC : 2016-10-14 14:38:18
_STATISTICS_TAGS : BPS DURATION NUMBER_OF_FRAMES NUMBER_OF_BYTES
DURATION : 01:26:30.018000000
NUMBER_OF_FRAMES : 124436
NUMBER_OF_BYTES : 3387524914
Audio #1
ID : 2
Format : AC-3
Format/Info : Audio Coding 3
Mode extension : CM (complete main)
Format settings, Endianness : Big
Codec ID : A_AC3
Duration : 1h 26mn
Bit rate mode : Constant
Bit rate : 192 Kbps
Channel(s) : 2 channels
Channel positions : Front: L R
Sampling rate : 48.0 KHz
Bit depth : 16 bits
Compression mode : Lossy
Stream size : 119 MiB (3%)
Title : iTunes
Language : Russian
Default : Yes
Forced : No
Audio #2
ID : 3
Format : DTS
Format/Info : Digital Theater Systems
Mode : 16
Format settings, Endianness : Big
Codec ID : A_DTS
Duration : 1h 26mn
Bit rate mode : Constant
Bit rate : 1 509 Kbps
Channel(s) : 6 channels
Channel positions : Front: L C R, Side: L R, LFE
Sampling rate : 48.0 KHz
Bit depth : 24 bits
Compression mode : Lossy
Stream size : 934 MiB (22%)
Language : English
Default : No
Forced : No
Text #1
ID : 4
Format : UTF-8
Codec ID : S_TEXT/UTF8
Codec ID/Info : UTF-8 Plain Text
Title : Forced
Language : Russian
Default : Yes
Forced : No
Text #2
ID : 5
Format : UTF-8
Codec ID : S_TEXT/UTF8
Codec ID/Info : UTF-8 Plain Text
Language : Russian
Default : No
Forced : No
Text #3
ID : 6
Format : UTF-8
Codec ID : S_TEXT/UTF8
Codec ID/Info : UTF-8 Plain Text
Language : English
Default : No
Forced : No
Text #4
ID : 7
Format : UTF-8
Codec ID : S_TEXT/UTF8
Codec ID/Info : UTF-8 Plain Text
Title : SDH
Language : English
Default : No
Forced : No
Menu #1
00:00:00.000 : en:00:00:00.000
00:05:54.479 : en:00:05:54.479
00:09:26.566 : en:00:09:26.566
00:14:38.169 : en:00:14:38.169
00:19:34.215 : en:00:19:34.215
00:24:49.279 : en:00:24:49.279
00:28:27.539 : en:00:28:27.539
00:31:45.070 : en:00:31:45.070
00:36:11.669 : en:00:36:11.669
00:40:15.580 : en:00:40:15.580
00:43:03.915 : en:00:43:03.915
00:46:44.093 : en:00:46:44.093
00:51:06.814 : en:00:51:06.814
00:54:38.775 : en:00:54:38.775
00:59:17.846 : en:00:59:17.846
01:05:15.161 : en:01:05:15.161
01:08:43.077 : en:01:08:43.077
01:13:13.598 : en:01:13:13.598
01:16:52.942 : en:01:16:52.942
01:22:29.736 : en:01:22:29.736

Скриншоты

[iv-torrents.ru].t63120.torrent
Торрент: Зарегистрирован [ 2016-10-17 19:45 ] · 3566CE5590AFC1B55CFAE723A1B4254FAB752BC1

Скачать .torrent

Скачать

11 KB

Статус: проверено
Скачан: 0 раз
Размер: 4.18 GB
terms.php
Похожие темы


Показать сообщения:    

Текущее время: 14-Дек 15:21

Часовой пояс: UTC ± 0


Вы не можете начинать темы
Вы не можете отвечать на сообщения
Вы не можете редактировать свои сообщения
Вы не можете удалять свои сообщения
Вы не можете голосовать в опросах
Вы не можете прикреплять файлы к сообщениям
Вы можете скачивать файлы

!ВНИМАНИЕ!
Сайт не предоставляет электронные версии произведений, а занимается лишь коллекционированием и каталогизацией ссылок, присылаемых и публикуемых на форуме нашими читателями. Если вы являетесь правообладателем какого-либо представленного материала и не желаете, чтобы ссылка на него находилась в нашем каталоге, свяжитесь с нами, и мы незамедлительно удалим ее. Файлы для обмена на трекере предоставлены пользователями сайта, и администрация не несет ответственности за их содержание. Просьба не заливать файлы, защищенные авторскими правами, а также файлы нелегального содержания!