Ивановский Торрент трекер
Яндекс.Погода
 

[Цитировать]
HUNTER

Попи / Папаша / Popi
Страна: США
Студия: Herbert B. Leonard Productions
Жанр: драма, комедия
Год выпуска: 1969
Продолжительность: 01:53:26
Перевод: Профессиональный (двухголосый закадровый) НТВ+
Cубтитры: английские
Оригинальная аудиодорожка: английский
Режиссер: Артур Хиллер / Arthur Hiller
В ролях: Алан Аркин, Рита Морено, Рубен Фигуроа, Мигель Алехандро, Арни Фриман, Джоан Томпкинс, Энтони Холланд, Луис Зорик, Антония Рей
Описание: Стремясь к лучшей жизни для своих двух сыновей, пуэрториканский эмигрант Авраам Родригес предпринимает весьма эксцентричные меры, чтобы вырвать своих мальчиков из «латиноамериканского гарлема». Папаша отправляет их во Флориду и оставляет на лодке дрейфовать в океане, зная, что два милых «беженца из Кубы», ищущих убежище в США станут знаменитостями и, вероятно, будет усыновлены богатыми «белыми». План папаши начинает срабатывать, сыновья даже могут удостоится аудиенции у президента, после выписки их из больницы, где они оправляются от испытаний на море…

Sample
Тип релиза: WEB-DL 720p
Контейнер: MKV
Видео: MPEG4 AVC Video, H264, 16:9, 1280x692, 23.976 fps, 4065 kbps
Аудио: Russian (AC3, 2 ch, 192 kbps, 16 bits, 48.0 KHz) - DVO
Аудио 2: English (AC3, 2 ch, 192 kbps, 16 bits, 48.0 KHz) - оригинал
Формат субтитров: softsub (SRT)

MediaInfo

General
Unique ID : 237714784477823072505028833987215857552 (0xB2D633C114DCA4E2BD1E42EC7DB99790)
Complete name : K:\Popi 1969 WEB-DL 720p.mkv
Format : Matroska
Format version : Version 4 / Version 2
File size : 3.60 GiB
Duration : 1h 53mn
Overall bit rate : 4 540 Kbps
Encoded date : UTC 2015-08-17 05:10:22
Writing application : mkvmerge v6.1.0 ('Old Devil') built on Mar 2 2013 14:32:37
Writing library : libebml v1.3.0 + libmatroska v1.4.0
Video
ID : 1
Format : AVC
Format/Info : Advanced Video Codec
Format profile : High@L3.1
Format settings, CABAC : No
Format settings, ReFrames : 2 frames
Codec ID : V_MPEG4/ISO/AVC
Duration : 1h 53mn
Bit rate : 4 065 Kbps
Width : 1 280 pixels
Height : 692 pixels
Display aspect ratio : 1.85:1
Frame rate mode : Constant
Frame rate : 23.976 fps
Color space : YUV
Chroma subsampling : 4:2:0
Bit depth : 8 bits
Scan type : Progressive
Bits/(Pixel*Frame) : 0.191
Stream size : 3.22 GiB (90%)
Language : English
Default : Yes
Forced : No
Color primaries : BT.709
Transfer characteristics : BT.709
Matrix coefficients : BT.709
Audio #1
ID : 2
Format : AC-3
Format/Info : Audio Coding 3
Mode extension : CM (complete main)
Format settings, Endianness : Big
Codec ID : A_AC3
Duration : 1h 53mn
Bit rate mode : Constant
Bit rate : 192 Kbps
Channel count : 2 channels
Channel positions : Front: L R
Sampling rate : 48.0 KHz
Bit depth : 16 bits
Compression mode : Lossy
Stream size : 156 MiB (4%)
Language : Russian
Default : Yes
Forced : Yes
Audio #2
ID : 3
Format : AC-3
Format/Info : Audio Coding 3
Mode extension : CM (complete main)
Format settings, Endianness : Big
Codec ID : A_AC3
Duration : 1h 53mn
Bit rate mode : Constant
Bit rate : 192 Kbps
Channel count : 2 channels
Channel positions : Front: L R
Sampling rate : 48.0 KHz
Bit depth : 16 bits
Compression mode : Lossy
Stream size : 156 MiB (4%)
Language : English
Default : No
Forced : No
Text
ID : 4
Format : UTF-8
Codec ID : S_TEXT/UTF8
Codec ID/Info : UTF-8 Plain Text
Language : English
Default : No
Forced : No
Menu
00:00:00.000 : en:Chapter 1
00:16:48.000 : en:Chapter 2
00:30:53.000 : en:Chapter 3
00:46:51.000 : en:Chapter 4
01:02:49.000 : en:Chapter 5
01:17:06.000 : en:Chapter 6
01:31:06.000 : en:Chapter 7
01:42:35.000 : en:Chapter 8

Скриншоты



Показать сообщения:    

Текущее время: 18-Дек 09:07

Часовой пояс: UTC ± 0


Вы не можете начинать темы
Вы не можете отвечать на сообщения
Вы не можете редактировать свои сообщения
Вы не можете удалять свои сообщения
Вы не можете голосовать в опросах
Вы не можете прикреплять файлы к сообщениям
Вы не можете скачивать файлы

!ВНИМАНИЕ!
Сайт не предоставляет электронные версии произведений, а занимается лишь коллекционированием и каталогизацией ссылок, присылаемых и публикуемых на форуме нашими читателями. Если вы являетесь правообладателем какого-либо представленного материала и не желаете, чтобы ссылка на него находилась в нашем каталоге, свяжитесь с нами, и мы незамедлительно удалим ее. Файлы для обмена на трекере предоставлены пользователями сайта, и администрация не несет ответственности за их содержание. Просьба не заливать файлы, защищенные авторскими правами, а также файлы нелегального содержания!