Помолвлена с незнакомцем / Mikakunin de Shinkoukei [OVA] [1 из 1] [Без хардсаба] [JAP, SUB] [2014 г., комедия, повседневность, BDRip] [720p] :: Ивановский Торрент трекер
Важное объявление!
У Нас Все раздачи мультитрекерные, при нуле пиров в релизах, можете смело вставать на закачку!
 
Автор Сообщение

HUNTER

Стаж:
4 года 11 месяцев
Сообщений:
66051

Репутация: 101

[+] [-]
Вне форума [Профиль] [ЛС]

Помолвлена с незнакомцем / Mikakunin de Shinkoukei
Страна: Япония
Год выпуска: 2014 г.
Жанр: комедия, повседневность
Тип: OVA
Продолжительность: 13 мин.
Режиссер: Фудживара Ёшиюки
Студия:
Описание: Юноми Кобени на своё шестнадцатилетие узнаёт, что уже давно помолвлена с юношей такого же возраста. Его зовут Мицумине Хакуя, и он переезжает из сельской местности и вселяется к ней в дом. Кроме того, он незнамо зачем захватил с собой свою младшую сестрёнку, которая ещё учится в начальной школе. Учитывая, что к этому веселью ещё присоединяется восемнадцатилетняя старшая сестра Юноми, некогда спокойный дом чуть ли не вверх дном переворачивается. Смогут ли эти четверо ужиться вместе? И не сорвётся ли помолвка от трудностей совместной жизни? В любом случае лучше уж сейчас, чем после свадьбы!
Вторая ова здесь
Качество: BDRip
Тип релиза: Без хардсаба
Формат видео: MP4
Наличие линковки: Нет
Релиз/Автор рипа: Ohys-Raws
Видео: H264, 1280x720, 8 bits, 3591 kbps, 23.976 fps
Аудио: AAC, 2ch, 188 kbps, 48kHz Язык Японский
Субтитры: ass, отдельным файлом Язык субтитров русский ; Перевод: Itseksee

Подробные тех. данные

Format : MPEG-4Format profile : Base MediaCodec ID : isomFile size : 347 MiBDuration : 12mn 48sOverall bit rate mode : VariableOverall bit rate : 3 782 Kbps
VideoID : 1Format : AVCFormat/Info : Advanced Video CodecFormat profile : High@L4.1Format settings, CABAC : YesFormat settings, ReFrames : 5 framesCodec ID : avc1Codec ID/Info : Advanced Video CodingDuration : 12mn 48sBit rate : 3 591 KbpsMaximum bit rate : 12.6 MbpsWidth : 1 280 pixelsHeight : 720 pixelsDisplay aspect ratio : 16:9Frame rate mode : ConstantFrame rate : 23.976 fpsColor space : YUVChroma subsampling : 4:2:0Bit depth : 8 bitsScan type : ProgressiveBits/(Pixel*Frame) : 0.163Stream size : 329 MiB (95%)Writing library : x264 core 128Encoding settings : cabac=1 / ref=6 / deblock=1:0:0 / analyse=0x3:0x113 / me=umh / subme=9 / psy=1 / psy_rd=1.00:0.00 / mixed_ref=1 / me_range=32 / chroma_me=1 / trellis=1 / 8x8dct=1 / cqm=0 / deadzone=21,11 / fast_pskip=1 / chroma_qp_offset=-2 / threads=12 / lookahead_threads=2 / sliced_threads=0 / nr=0 / decimate=1 / interlaced=0 / bluray_compat=1 / constrained_intra=0 / bframes=3 / b_pyramid=1 / b_adapt=1 / b_bias=0 / direct=1 / weightb=1 / open_gop=0 / weightp=1 / keyint=250 / keyint_min=1 / scenecut=40 / intra_refresh=0 / rc_lookahead=40 / rc=crf / mbtree=1 / crf=20.0 / qcomp=0.60 / qpmin=10 / qpmax=20 / qpstep=8 / ip_ratio=1.40 / aq=1:1.00
AudioID : 2Format : AACFormat/Info : Advanced Audio CodecFormat profile : LCCodec ID : 40Duration : 12mn 48sBit rate mode : VariableBit rate : 188 KbpsMaximum bit rate : 258 KbpsChannel count : 2 channelsChannel positions : Front: L RSampling rate : 48.0 KHzCompression mode : LossyDelay relative to video : 83msStream size : 17.2 MiB (5%)Language : Japanese

Список эпизодов

1. Mite. Are ga Watashitachi no Tomatte Iru Ryokan yo.

Скриншоты


_________________
Показать сообщения:    

Текущее время: Сегодня 07:17

Часовой пояс: GMT



Вы не можете начинать темы
Вы не можете отвечать на сообщения
Вы не можете редактировать свои сообщения
Вы не можете удалять свои сообщения
Вы не можете голосовать в опросах
Вы не можете прикреплять файлы к сообщениям
Вы не можете скачивать файлы