Ивановский Торрент трекер
Яндекс.Погода
 

[Цитировать]
HUNTER

Помогите стать отцом / Not Suitable for Children- Год выпуска: 2012
Страна: Австралия
Жанр: мелодрама, комедия
Продолжительность: 01:32:00
Перевод: Профессиональный (дублированный)[Лицензия]-Режиссер: Питер Темплмен
Сценарий: Майкл Лукас, Питер Темплмен
Продюсер: Джоди Маттерсон, Даррен Эштон, Барбара Гиббс-В ролях: Райан Квантен / Ryan Kwanten (Jonah), Сара Снук / Sarah Snook (Stevie), Райан Корр / Ryan Corr (Gus), Бояна Новакович / Bojana Novakovic (Ava), Сьюзэн Прайор / Susan Prior (Marcie), Льюис Фиц-Джералд / Lewis Fitz-Gerald (Dr. McKenzie), Кэтерин Бек / Kathryn Beck (Becky Kincaid), Белинда Бромилов / Belinda Bromilow (Claire), Зои Каридес / Zoe Carides (Lab Technician), Элис Паркинсон / Alice Parkinson (Alison)
-Описание: Молодой плейбой узнает, что у него остался один месяц до того, как он станет бесплодным. И он решает как можно скорее зачать ребенка.-Бюджет: AUD 4 500 000
Премьера (мир): 6 июня 2012, ...
Премьера (РФ): 8 ноября 2012, «Кинопром»
Релиз на DVD: 24 декабря 2012, «Новый Диск»-Рейтинг:-Качество: DVD5
Формат: MPEG-PS
Видео кодек: MPEG-2 Video
Аудио кодеk: AC3
Видео: 720x576 (16:9), 25.000 fps, MPEG-2 Video, 6 364 Kbps
Аудио: Аудио #1: AC3, 448 Kbps, 48.0 KHz, 6 ch
-

МедиаИнфо

Код: copyText_writeLink('this.parentNode.parentNode.nextSibling.nextSibling'); General
Complete name : VTS_04_1.VOB
Format : MPEG-PS
File size : 1 024 MiB
Duration : 20mn 35s
Overall bit rate : 6 950 Kbps
Video
ID : 224 (0xE0)
Format : MPEG Video
Format version : Version 2
Format profile : Main@Main
Format settings, BVOP : Yes
Format settings, Matrix : Default
Duration : 20mn 35s
Bit rate mode : Variable
Bit rate : 6 364 Kbps
Nominal bit rate : 8 441 Kbps
Width : 720 pixels
Height : 576 pixels
Display aspect ratio : 16:9
Frame rate : 25.000 fps
Standard : PAL
Color space : YUV
Chroma subsampling : 4:2:0
Bit depth : 8 bits
Scan type : Interlaced
Scan order : Bottom Field First
Bits/(Pixel*Frame) : 0.614
Stream size : 938 MiB (92%)
Audio
ID : 128 (0x80)
Format : AC-3
Format/Info : Audio Coding 3
Mode extension : CM (complete main)
Duration : 20mn 35s
Bit rate mode : Constant
Bit rate : 448 Kbps
Channel(s) : 6 channels
Channel positions : Front: L C R, Side: L R, LFE
Sampling rate : 48.0 KHz
Bit depth : 16 bits
Stream size : 66.0 MiB (6%)
Menu

Знаете ли Вы, что...

★ Орхиэктомия (удаление яичка) почти никогда не вызывает никаких проблем с фертильностью кроме тех, что уже были до операции. А так как у героя нормальное количество сперматозоидов на момент диагностики, крайне маловероятно, что удаление одного яичка сделает его бесплодным.
★ Ошибка в дате: действие происходит в течение нескольких недель до 10 числа месяца (дата операции), Стиви начинает думать о зачатии с героем где-то после 22-го, что видно из информации о ее овуляции, которую она вводит на своем компьютере. Однако, когда она пишет ему, чтобы он зашел к ней в комнату, на его iPhone отображается 17-е число.
-
- -


Показать сообщения:    

Текущее время: 15-Дек 10:27

Часовой пояс: UTC ± 0


Вы не можете начинать темы
Вы не можете отвечать на сообщения
Вы не можете редактировать свои сообщения
Вы не можете удалять свои сообщения
Вы не можете голосовать в опросах
Вы не можете прикреплять файлы к сообщениям
Вы не можете скачивать файлы

!ВНИМАНИЕ!
Сайт не предоставляет электронные версии произведений, а занимается лишь коллекционированием и каталогизацией ссылок, присылаемых и публикуемых на форуме нашими читателями. Если вы являетесь правообладателем какого-либо представленного материала и не желаете, чтобы ссылка на него находилась в нашем каталоге, свяжитесь с нами, и мы незамедлительно удалим ее. Файлы для обмена на трекере предоставлены пользователями сайта, и администрация не несет ответственности за их содержание. Просьба не заливать файлы, защищенные авторскими правами, а также файлы нелегального содержания!