Важное объявление!
У Нас Все раздачи мультитрекерные, при нуле пиров в релизах, можете смело вставать на закачку!
Статистика раздачи
Размер:     |    Зарегистрирован:     |    Скачан:     |   
Нет
 
     
 
 
Автор Сообщение

HUNTER

Стаж:
5 лет
Сообщений:
68401

Репутация: 101

[+] [-]
Вне форума [Профиль] [ЛС]

Помогите! Моя жена опять ходит в школу... / Моя жена возвращается в школу / Помогите, моя жена пошла опять учиться / Mia moglie torna a scuola / My Wife Goes Back to School
Страна: Италия
Жанр: комедия
Год выпуска: 1981
Продолжительность: 01:16:14
Перевод: Авторский (одноголосый закадровый) Андрей Мудров
Cубтитры: нет
Оригинальная аудиодорожка: итальянский
Режиссер: Джулиано Карнимео / Giuliano Carnimeo
В ролях: Ренцо Монтаньяни / Renzo Montagnani, Кармен Руссо / Carmen Russo, Чинция де Понти / Cinzia de Ponti, Мариза Мерлини / Marisa Merlini, Энцо Робутти / Enzo Robutti, Тони Уччи / Toni Ucci, Роберто Галлоцци / Roberto Gallozzi, Адриана Джуффре / Adriana Giuffre, Энцо Андронико / Enzo Andronico, Джимми иль Феномено / Jimmy il Fenomeno, Фабио Гросси / Fabio Grossi, Анджело Фани / Angelo Fani, Том Феллеги / Tom Felleghy, Николетта Пьерсанти / Nicoletta Piersanti
Описание: Домохозяйка Валентина, недовольная своей малообразованностью, поступает на трехмесячные курсы в колледже, несмотря на возражения мужа Аристида, торгующего продуктами. Она поселяется в общежитии и сразу становится объектом повышенного внимания для студентов и профессора Пьера Каппони. В то же время и Аристид, тоскующий по жене, неустанно пытается пробраться в колледж…
Отдельное спасибо rotorovv за ДВД.
Бонусы: трейлер на итальянском
Меню: есть, статичное
Сэмпл: http://multi-up.com/971900
Тип релиза: DVD5 (Custom)
Контейнер: DVD-Video
Видео: PAL 4:3 (720x576) VBR 7200 Кбит/сек 25,000 кадров/сек
Аудио: Russian (Dolby AC3, 2 ch) 192 Кбит/сек, 48,0 КГц
Аудио 2: Italiano (Dolby AC3, 2 ch) 192 Кбит/сек, 48,0 КГц
Инфо о сборке
Русская дорожка отсюда
ДВД взято с tntvillage.scambioetico
VirtualDubMod, MuxMan, DvdReMakePro
DVDInfo
Title: Mia moglie torna a scuola rus
Size: 4.29 Gb ( 4 500 528,00 KBytes ) - DVD-5
Enabled regions: 1, 2, 3, 4, 5, 6, 7, 8
VTS_01 :
Play Length: 01:16:14
Video: PAL 4:3 (720x576) VBR
Audio:
Russian (Dolby AC3, 2 ch)
Italiano (Dolby AC3, 2 ch)
VTS_02 :
Play Length: 00:00:06
Video: PAL 4:3 (720x576) VBR
VTS_03 :
Play Length: 00:04:03
Video: PAL 4:3 (720x576) VBR
Audio:
Italiano (Dolby AC3, 2 ch)
MediaInfo
Общее
Полное имя : P:\Мои Раздачи\Mia moglie torna a scuola rus\VIDEO_TS\VTS_01_1.VOB
Формат : MPEG-PS
Размер файла : 1024 Мбайт
Продолжительность : 18 м.
Режим общего битрейта : Переменный
Общий поток : 7723 Кбит/сек
Видео
Идентификатор : 224 (0xE0)
Формат : MPEG Video
Версия формата : Version 2
Профиль формата : Main@Main
Параметр BVOP формата : Да
Параметр матрицы формата : По умолчанию
Параметр GOP формата : M=3, N=13
Продолжительность : 18 м.
Вид битрейта : Переменный
Битрейт : 7200 Кбит/сек
Ширина : 720 пикселей
Высота : 576 пикселей
Соотношение сторон : 4:3
Частота кадров : 25,000 кадров/сек
Стандарт вещания : PAL
Цветовое пространство : YUV
Субдискретизация насыщенности : 4:2:0
Битовая глубина : 8 бит
Тип развёртки : Чересстрочная
Порядок развёртки : Верхнее поле первое
Метод сжатия : С потерями
Бит/(Пиксели*Кадры) : 0.694
Временной код первого кадра : 09:59:59:20
Оригинал временного кода : Group of pictures header
Размер потока : 953 Мбайт (93%)
Основные цвета : BT.601 PAL
Характеристики трансфера : BT.470 System B, BT.470 System G
Коэффициенты матрицы : BT.601
Аудио #1
Идентификатор : 189 (0xBD)-128 (0x80)
Формат : AC-3
Формат/Информация : Audio Coding 3
Расширение режима : CM (complete main)
Параметр Endianness формата : Big
Режим смешивания : DVD-Video
Продолжительность : 18 м.
Вид битрейта : Постоянный
Битрейт : 192 Кбит/сек
Каналы : 2 канала
Расположение каналов : Front: L R
Частота : 48,0 КГц
Битовая глубина : 16 бит
Метод сжатия : С потерями
Размер потока : 25,5 Мбайт (2%)
Аудио #2
Идентификатор : 189 (0xBD)-129 (0x81)
Формат : AC-3
Формат/Информация : Audio Coding 3
Расширение режима : CM (complete main)
Параметр Endianness формата : Big
Режим смешивания : DVD-Video
Продолжительность : 18 м.
Вид битрейта : Постоянный
Битрейт : 192 Кбит/сек
Каналы : 2 канала
Расположение каналов : Front: L R
Частота : 48,0 КГц
Битовая глубина : 16 бит
Метод сжатия : С потерями
Размер потока : 25,5 Мбайт (2%)
Меню
Скриншоты менюСкриншоты

_________________
Показать сообщения:    

Текущее время: Сегодня 03:41

Часовой пояс: GMT



Вы не можете начинать темы
Вы не можете отвечать на сообщения
Вы не можете редактировать свои сообщения
Вы не можете удалять свои сообщения
Вы не можете голосовать в опросах
Вы не можете прикреплять файлы к сообщениям
Вы не можете скачивать файлы