Важное объявление!
У Нас Все раздачи мультитрекерные, при нуле пиров в релизах, можете смело вставать на закачку!
Статистика раздачи
Размер:     |    Зарегистрирован:     |    Скачан:     |   
Нет
 
     
 
 
Автор Сообщение

HUNTER

Стаж:
5 лет
Сообщений:
68053

Репутация: 101

[+] [-]
Вне форума [Профиль] [ЛС]


Полёт навигатора
Flight of the Navigator
-

  • Год производства: 1986

  • Страна: США, Норвегия

  • Жанр: фантастика, приключения, семейный

  • Продолжительность: 01:29:33

  • Перевод#1: Профессиональный (полное дублирование) киностудия им. Горького

  • Перевод#2: Профессиональный (многоголосый закадровый) СТС

  • Перевод#3: Любительский (закадровый одноголосый) Ray

  • Субтитры: русские,английские-
  • Режиссер: Рэндал Клайзер / Randal Kleiser-
  • В ролях: Джои Крамер / Joey Cramer, Пол Рубенс / Paul Reubens, Вероника Картрайт / Veronica Cartwright, Клифф Де Янг / Cliff De Young, Сара Джессика Паркер / Sarah Jessica Parker, Мэтт Адлер / Matt Adler, Ховард Хессеман / Howard Hesseman, Роберт Смолл / Robert Small, Элби Уайтакер / Albie Whitaker, Джонатан Сэнгер / Jonathan Sanger, Ирис Эккер / Iris Acker, Ричард Либерти / Richard Liberty, Рэймонд Форчион / Raymond Forchion, Синтия Сакелин / Cynthia Caquelin-
  • Описание: В 1978 году 12-летний мальчик не вернулся домой. Он считался пропавшим без вести в течение 8 лет. Но однажды он вернулся. Радости родных не было предела, но что случилось с ребенком? За эти годы он совсем не вырос, оставшись таким, как и много лет назад. Сам он не может ничего объяснить. Мальчик помнит только, что заблудился в лесу, потом упал, а когда очнулся, то обнаружил себя в 1986 году. Вскоре люди обнаружили нечто похожее на летающую тарелку, запутавшуюся в электрических проводах. Что это, совпадение, или мальчик действительно был похищен инопланетянами?
    -
  • Качество видео: BDRip 1080p

  • Формат видео: mkv

  • Видео кодек: H264

  • Аудио кодек: AC3|DTS

  • Видео: 1920x1080 (16:9), 23.976 fps, 10.1 Mbps, 0.202 bit/pixel

  • Аудио#1: 48 kHz, AC3 2 ch ~192 kbps avg - киностудия им. Горького

  • Аудио#2: 48 kHz, AC3 2 ch ~192 kbps avg - СТС

  • Аудио#3: 48 kHz, AC3 2 ch ~192 kbps avg - Ray

  • Аудио#4: 48 kHz, DTS 6 ch ~1510 kbps avg - Оригинал-
  • Автор рипа: falco
-

Доп. информация

Скриншоты

Скриншоты

MediaInfo

Код: copyText_writeLink('this.parentNode.parentNode.nextSibling.nextSibling');
General
Unique ID : 243125978539945466802814265772784771467 (0xB6E85C3838625A2FA2AE5DCFEB20618B)
Complete name : D:\Торенты\Flight.of.the.Navigator.BDRip.1080p.falco.mkv
Format : Matroska
Format version : Version 4 / Version 2
File size : 7.98 GiB
Duration : 1h 29mn
Overall bit rate mode : Variable
Overall bit rate : 12.8 Mbps
Movie name : -Talian-
Encoded date : UTC 2013-09-18 00:47:43
Writing application : mkvmerge v6.4.1 ('Omega Point') built on Sep 16 2013 22:05:10
Writing library : libebml v1.3.0 + libmatroska v1.4.1
Video
ID : 1
Format : AVC
Format/Info : Advanced Video Codec
Format profile : [url=mailto:Main@L4.1]Main@L4.1[/url]
Format settings, CABAC : Yes
Format settings, ReFrames : 5 frames
Codec ID : V_MPEG4/ISO/AVC
Duration : 1h 29mn
Bit rate : 10.1 Mbps
Width : 1 920 pixels
Height : 1 080 pixels
Display aspect ratio : 16:9
Frame rate : 23.976 fps
Color space : YUV
Chroma subsampling : 4:2:0
Bit depth : 8 bits
Scan type : Progressive
Bits/(Pixel*Frame) : 0.202
Stream size : 6.47 GiB (81%)
Writing library : x264 core 130 r2273 b3065e6
Encoding settings : cabac=1 / ref=5 / deblock=1:-3:-3 / analyse=0x1:0x131 / me=umh / subme=10 / psy=1 / psy_rd=1.00:0.00 / mixed_ref=1 / me_range=16 / chroma_me=1 / trellis=2 / 8x8dct=0 / cqm=0 / deadzone=21,11 / fast_pskip=0 / chroma_qp_offset=-4 / threads=6 / lookahead_threads=1 / sliced_threads=0 / nr=0 / decimate=0 / interlaced=0 / bluray_compat=0 / constrained_intra=0 / bframes=5 / b_pyramid=2 / b_adapt=0 / b_bias=0 / direct=3 / weightb=1 / open_gop=0 / weightp=2 / keyint=250 / keyint_min=23 / scenecut=40 / intra_refresh=0 / rc_lookahead=50 / rc=2pass / mbtree=1 / bitrate=10064 / ratetol=1.0 / qcomp=0.60 / qpmin=0 / qpmax=69 / qpstep=4 / cplxblur=20.0 / qblur=0.5 / ip_ratio=1.40 / aq=1:1.00
Default : Yes
Forced : No
Audio #1
ID : 2
Format : AC-3
Format/Info : Audio Coding 3
Format profile : Dolby Digital
Mode extension : CM (complete main)
Format settings, Endianness : Big
Codec ID : A_AC3
Duration : 1h 29mn
Bit rate mode : Constant
Bit rate : 192 Kbps
Channel(s) : 2 channels
Channel positions : Front: L R
Sampling rate : 48.0 KHz
Bit depth : 16 bits
Compression mode : Lossy
Stream size : 123 MiB (2%)
Title : DUB-Киностудия им. Горького
Language : Russian
Default : Yes
Forced : No
Audio #2
ID : 3
Format : AC-3
Format/Info : Audio Coding 3
Format profile : Dolby Digital
Mode extension : CM (complete main)
Format settings, Endianness : Big
Codec ID : A_AC3
Duration : 1h 29mn
Bit rate mode : Constant
Bit rate : 192 Kbps
Channel(s) : 2 channels
Channel positions : Front: L R
Sampling rate : 48.0 KHz
Bit depth : 16 bits
Compression mode : Lossy
Stream size : 123 MiB (2%)
Title : MVO-СТС
Language : Russian
Default : No
Forced : No
Audio #3
ID : 4
Format : AC-3
Format/Info : Audio Coding 3
Format profile : Dolby Digital
Mode extension : CM (complete main)
Format settings, Endianness : Big
Codec ID : A_AC3
Duration : 1h 29mn
Bit rate mode : Constant
Bit rate : 192 Kbps
Channel(s) : 2 channels
Channel positions : Front: L R
Sampling rate : 48.0 KHz
Bit depth : 16 bits
Compression mode : Lossy
Stream size : 123 MiB (2%)
Title : VO-Ray
Language : Russian
Default : No
Forced : No
Audio #4
ID : 5
Format : DTS
Format/Info : Digital Theater Systems
Format profile : MA / Core
Codec ID : A_DTS
Duration : 1h 29mn
Bit rate mode : Variable
Bit rate : 1 576 Kbps / 1 510 Kbps
Channel(s) : 6 channels
Channel positions : Front: L C R, Side: L R, LFE
Sampling rate : 48.0 KHz
Bit depth : 16 bits
Compression mode : Lossless / Lossy
Title : Original
Language : English
Default : No
Forced : No
Text #1
ID : 6
Format : UTF-8
Codec ID : S_TEXT/UTF8
Codec ID/Info : UTF-8 Plain Text
Title : Sub
Language : Russian
Default : Yes
Forced : No
Text #2
ID : 7
Format : UTF-8
Codec ID : S_TEXT/UTF8
Codec ID/Info : UTF-8 Plain Text
Title : Sub
Language : English
Default : No
Forced : No
Menu
00:00:00.000 : en:00:00:00.000
00:11:05.706 : en:00:11:05.706
00:21:46.138 : en:00:21:46.138
00:33:04.857 : en:00:33:04.857
00:39:57.186 : en:00:39:57.186
00:48:51.386 : en:00:48:51.386
01:00:58.363 : en:01:00:58.363
01:09:28.163 : en:01:09:28.163
01:19:17.752 : en:01:19:17.752
01:26:01.155 : en:01:26:01.155
01:29:32.950 : en:01:29:32.950

_________________
Показать сообщения:    

Текущее время: Сегодня 02:51

Часовой пояс: GMT



Вы не можете начинать темы
Вы не можете отвечать на сообщения
Вы не можете редактировать свои сообщения
Вы не можете удалять свои сообщения
Вы не можете голосовать в опросах
Вы не можете прикреплять файлы к сообщениям
Вы не можете скачивать файлы