Важное объявление!
У Нас Все раздачи мультитрекерные, при нуле пиров в релизах, можете смело вставать на закачку!
Статистика раздачи
Размер:     |    Зарегистрирован:     |    Скачан:     |   
Нет
 
     
 
 
Автор Сообщение

HUNTER

Стаж:
5 лет
Сообщений:
68042

Репутация: 101

[+] [-]
Вне форума [Профиль] [ЛС]

Поля сражений - Сезон 4 / Battlefield - Series 4
Год выпуска: 2000
Страна: Великобритания
Жанр: Документальный
Перевод: Профессиональный (одноголосый, канал Discovery)
Русские субтитры: есть (только на непереведенные места)
Описание: Цикл документальных фильмов о важнейших сражениях Второй Мировой войны.
Доп. информация: В качестве исходного материала брался DVD и русский перевод канала Discovery с этого трекера. Т.к. видеоряд DVD расширен относительно рипов телепередач, имеющихся на трекере, звук немного отредактирован: на пропущенные места наложены отрезки из оригинала. Которые, где это было необходимо, перевел субтитрами. Переводил на слух, поэтому могут быть ошибки, критику приму к сведению.
Качество: DVDRip
Формат: MKV
Видео кодек: H.264
Аудио кодек: MP3
То же самое, но на DVD, находится здесь
Огромная благодарность пользователю Белка123 за предоставленную русскую дорожку для серии Гуадалканал.
[url=http://en.wikipedia.org/wiki/Battlefield_(TV_series)]Список серий всего цикла на Википедии[/url].
Сэмпл
Список серий

Воздушная война с Германией

Воздушная война с Германией / Airwar over Germany
Продолжительность: 01:44:38
Описание: Документальный фильм о стратегических бомбардировках Германии союзниками.
Видео: H.264, 700:528 (4:3), 1875 Kbps, 25 fps
Аудио: MP3, 112 Kbps, 48 KHz, stereo

MediaInfo

General
Format : Matroska
Format version : Version 2
File size : 1.45 GiB
Duration : 1h 44mn
Overall bit rate : 1 987 Kbps
Encoded date : UTC 2012-09-23 18:31:06
Writing application : mkvmerge v5.8.0 ('No Sleep / Pillow') built on Sep 2 2012 15:37:04
Writing library : libebml v1.2.3 + libmatroska v1.3.0
Video
ID : 1
Format : AVC
Format/Info : Advanced Video Codec
Format profile : High@L4.1
Format settings, CABAC : Yes
Format settings, ReFrames : 6 frames
Muxing mode : Header stripping
Codec ID : V_MPEG4/ISO/AVC
Duration : 1h 44mn
Bit rate : 1 875 Kbps
Width : 700 pixels
Height : 528 pixels
Display aspect ratio : 4:3
Frame rate : 25.000 fps
Color space : YUV
Chroma subsampling : 4:2:0
Bit depth : 8 bits
Scan type : Progressive
Bits/(Pixel*Frame) : 0.203
Stream size : 1.34 GiB (92%)
Writing library : x264 core 125 r2208 d9d2288
Encoding settings : cabac=1 / ref=6 / deblock=1:0:0 / analyse=0x3:0x133 / me=umh / subme=7 / psy=0 / mixed_ref=1 / me_range=16 / chroma_me=1 / trellis=1 / 8x8dct=1 / cqm=0 / deadzone=21,11 / fast_pskip=0 / chroma_qp_offset=0 / threads=6 / lookahead_threads=1 / sliced_threads=0 / nr=0 / decimate=0 / interlaced=0 / bluray_compat=0 / constrained_intra=0 / bframes=4 / b_pyramid=2 / b_adapt=2 / b_bias=0 / direct=1 / weightb=1 / open_gop=0 / weightp=2 / keyint=250 / keyint_min=25 / scenecut=40 / intra_refresh=0 / rc=2pass / mbtree=0 / bitrate=1875 / ratetol=1.0 / qcomp=0.60 / qpmin=10 / qpmax=51 / qpstep=4 / cplxblur=20.0 / qblur=0.5 / ip_ratio=1.40 / pb_ratio=1.30 / aq=1:1.00
Language : English
Default : Yes
Forced : No
Audio
ID : 2
Format : MPEG Audio
Format version : Version 1
Format profile : Layer 3
Muxing mode : Header stripping
Codec ID : A_MPEG/L3
Codec ID/Hint : MP3
Duration : 1h 44mn
Bit rate mode : Constant
Bit rate : 112 Kbps
Channel(s) : 2 channels
Sampling rate : 48.0 KHz
Compression mode : Lossy
Stream size : 83.5 MiB (6%)
Writing library : LAME3.99r
Encoding settings : -m s -V 4 -q 3 -lowpass 15.6 -b 112
Default : Yes
Forced : No
Text
ID : 3
Format : ASS
Codec ID : S_TEXT/ASS
Codec ID/Info : Advanced Sub Station Alpha
Compression mode : Lossless
Default : Yes
Forced : Yes

Скриншоты

Гуадалканал

Гуадалканал / Guadalcanal
Продолжительность: 01:35:36
Описание:Битва за Гуадалканал (Гуадалканальская кампания), носившая также кодовое название Операция Уотчтауэр, проходила с 7 августа 1942 года по 9 февраля 1943 года на Тихоокеанском театре военных действий Второй мировой войны. Она шла на земле, в воздухе, и в воде между силами Союзников и Японии. Боевые действия велись на острове Гуадалканал (Соломоновы Острова) и вокруг него.
Видео: H.264, 700:536 (4:3), 1982 Kbps, 25 fps
Аудио: MP3, 192 Kbps, 48 KHz, mono

MediaInfo

General
Format : Matroska
Format version : Version 4 / Version 2
File size : 1.45 GiB
Duration : 1h 35mn
Overall bit rate : 2 175 Kbps
Encoded date : UTC 2013-02-11 13:53:00
Writing application : mkvmerge v5.9.0 ('On The Loose') built on Dec 31 2012 17:36:59
Writing library : libebml v1.3.0 + libmatroska v1.4.0
Video
ID : 1
Format : AVC
Format/Info : Advanced Video Codec
Format profile : High@L4.1
Format settings, CABAC : Yes
Format settings, ReFrames : 6 frames
Muxing mode : Header stripping
Codec ID : V_MPEG4/ISO/AVC
Duration : 1h 35mn
Bit rate : 1 982 Kbps
Width : 700 pixels
Height : 536 pixels
Display aspect ratio : 4:3
Frame rate : 25.000 fps
Color space : YUV
Chroma subsampling : 4:2:0
Bit depth : 8 bits
Scan type : Progressive
Bits/(Pixel*Frame) : 0.211
Stream size : 1.30 GiB (89%)
Writing library : x264 core 129 r2230 1cffe9f
Encoding settings : cabac=1 / ref=6 / deblock=1:0:0 / analyse=0x3:0x133 / me=umh / subme=7 / psy=0 / mixed_ref=1 / me_range=16 / chroma_me=1 / trellis=1 / 8x8dct=1 / cqm=0 / deadzone=21,11 / fast_pskip=0 / chroma_qp_offset=0 / threads=6 / lookahead_threads=1 / sliced_threads=0 / nr=0 / decimate=0 / interlaced=0 / bluray_compat=0 / constrained_intra=0 / bframes=4 / b_pyramid=2 / b_adapt=2 / b_bias=0 / direct=1 / weightb=1 / open_gop=0 / weightp=2 / keyint=250 / keyint_min=25 / scenecut=40 / intra_refresh=0 / rc=2pass / mbtree=0 / bitrate=1982 / ratetol=1.0 / qcomp=0.60 / qpmin=10 / qpmax=51 / qpstep=4 / cplxblur=20.0 / qblur=0.5 / ip_ratio=1.40 / pb_ratio=1.30 / aq=1:1.00
Language : English
Default : Yes
Forced : No
Audio
ID : 2
Format : MPEG Audio
Format version : Version 1
Format profile : Layer 3
Muxing mode : Header stripping
Codec ID : A_MPEG/L3
Codec ID/Hint : MP3
Duration : 1h 35mn
Bit rate mode : Constant
Bit rate : 192 Kbps
Channel(s) : 1 channel
Sampling rate : 48.0 KHz
Compression mode : Lossy
Stream size : 131 MiB (9%)
Writing library : LAME3.99r
Encoding settings : -m m -V 4 -q 3 -lowpass 20.5 -b 192
Default : Yes
Forced : No
Text
ID : 3
Format : ASS
Codec ID : S_TEXT/ASS
Codec ID/Info : Advanced Sub Station Alpha
Compression mode : Lossless
Default : Yes
Forced : Yes

Скриншоты

Курск (Курская битва)

Курск (Курская битва) / Kursk
Продолжительность: 01:36:08
Описание: Курская битва (5 июля — 23 августа 1943 года; также известна как Битва на Курской дуге) по своим масштабам, задействованным силам и средствам, напряжённости, результатам и военно-политическим последствиям является одним из ключевых сражений Второй мировой войны и Великой Отечественной войны. Самое крупное танковое сражение в истории; в нём участвовали около двух миллионов человек, шести тысяч танков, четырёх тысяч самолётов.
Видео: H.264, 698:536 (4:3), 2050 Kbps, 25 fps
Аудио: MP3, 112 Kbps, 48 KHz, stereo

MediaInfo

General
Format : Matroska
Format version : Version 4 / Version 2
File size : 1.45 GiB
Duration : 1h 36mn
Overall bit rate : 2 162 Kbps
Encoded date : UTC 2013-03-07 13:04:58
Writing application : mkvmerge v5.9.0 ('On The Loose') built on Dec 31 2012 17:36:59
Writing library : libebml v1.3.0 + libmatroska v1.4.0
Video
ID : 1
Format : AVC
Format/Info : Advanced Video Codec
Format profile : High@L4.1
Format settings, CABAC : Yes
Format settings, ReFrames : 6 frames
Muxing mode : Header stripping
Codec ID : V_MPEG4/ISO/AVC
Duration : 1h 36mn
Bit rate : 2 050 Kbps
Width : 698 pixels
Height : 536 pixels
Display aspect ratio : 4:3
Frame rate : 25.000 fps
Color space : YUV
Chroma subsampling : 4:2:0
Bit depth : 8 bits
Scan type : Progressive
Bits/(Pixel*Frame) : 0.219
Stream size : 1.35 GiB (93%)
Writing library : x264 core 129 r2230 1cffe9f
Encoding settings : cabac=1 / ref=6 / deblock=1:0:0 / analyse=0x3:0x133 / me=umh / subme=7 / psy=0 / mixed_ref=1 / me_range=16 / chroma_me=1 / trellis=1 / 8x8dct=1 / cqm=0 / deadzone=21,11 / fast_pskip=0 / chroma_qp_offset=0 / threads=6 / lookahead_threads=1 / sliced_threads=0 / nr=0 / decimate=0 / interlaced=0 / bluray_compat=0 / constrained_intra=0 / bframes=4 / b_pyramid=2 / b_adapt=2 / b_bias=0 / direct=1 / weightb=1 / open_gop=0 / weightp=2 / keyint=250 / keyint_min=25 / scenecut=40 / intra_refresh=0 / rc=2pass / mbtree=0 / bitrate=2050 / ratetol=1.0 / qcomp=0.60 / qpmin=10 / qpmax=51 / qpstep=4 / cplxblur=20.0 / qblur=0.5 / ip_ratio=1.40 / pb_ratio=1.30 / aq=1:1.00
Language : English
Default : Yes
Forced : No
Audio
ID : 2
Format : MPEG Audio
Format version : Version 1
Format profile : Layer 3
Muxing mode : Header stripping
Codec ID : A_MPEG/L3
Codec ID/Hint : MP3
Duration : 1h 36mn
Bit rate mode : Constant
Bit rate : 112 Kbps
Channel(s) : 2 channels
Sampling rate : 48.0 KHz
Compression mode : Lossy
Stream size : 77.0 MiB (5%)
Writing library : LAME3.99r
Encoding settings : -m s -V 4 -q 3 -lowpass 15.6 -b 112
Default : Yes
Forced : No
Text
ID : 3
Format : ASS
Codec ID : S_TEXT/ASS
Codec ID/Info : Advanced Sub Station Alpha
Compression mode : Lossless
Default : Yes
Forced : No

Скриншоты

Ленинград (Блокада Ленинграда)

Ленинград (Блокада Ленинграда) / Leningrad
Продолжительность: 01:36:28
Описание: Блокада Ленинграда — военная блокада немецкими, финскими и испанскими (Голубая дивизия) войсками с участием добровольцев из Северной Африки, Европы и военно-морских сил Италии во время Великой Отечественной войны Ленинграда. Длилась с 8 сентября 1941 года по 27 января 1944 года (блокадное кольцо было прорвано 18 января 1943 года) — 872 дня.
Видео: H.264, 702:534 (4:3), 2043 Kbps, 25 fps
Аудио: MP3, 112 Kbps, 48 KHz, stereo

MediaInfo

General
Format : Matroska
Format version : Version 4 / Version 2
File size : 1.45 GiB
Duration : 1h 36mn
Overall bit rate : 2 156 Kbps
Encoded date : UTC 2013-04-17 18:55:08
Writing application : mkvmerge v5.9.0 ('On The Loose') built on Dec 31 2012 17:36:59
Writing library : libebml v1.3.0 + libmatroska v1.4.0
Video
ID : 1
Format : AVC
Format/Info : Advanced Video Codec
Format profile : High@L4.1
Format settings, CABAC : Yes
Format settings, ReFrames : 6 frames
Muxing mode : Header stripping
Codec ID : V_MPEG4/ISO/AVC
Duration : 1h 36mn
Bit rate : 2 043 Kbps
Width : 702 pixels
Height : 534 pixels
Display aspect ratio : 4:3
Frame rate : 25.000 fps
Color space : YUV
Chroma subsampling : 4:2:0
Bit depth : 8 bits
Scan type : Progressive
Bits/(Pixel*Frame) : 0.218
Stream size : 1.35 GiB (93%)
Writing library : x264 core 129 r2230 1cffe9f
Encoding settings : cabac=1 / ref=6 / deblock=1:0:0 / analyse=0x3:0x133 / me=umh / subme=7 / psy=0 / mixed_ref=1 / me_range=16 / chroma_me=1 / trellis=1 / 8x8dct=1 / cqm=0 / deadzone=21,11 / fast_pskip=0 / chroma_qp_offset=0 / threads=6 / lookahead_threads=1 / sliced_threads=0 / nr=0 / decimate=0 / interlaced=0 / bluray_compat=0 / constrained_intra=0 / bframes=4 / b_pyramid=2 / b_adapt=2 / b_bias=0 / direct=1 / weightb=1 / open_gop=0 / weightp=2 / keyint=250 / keyint_min=25 / scenecut=40 / intra_refresh=0 / rc=2pass / mbtree=0 / bitrate=2043 / ratetol=1.0 / qcomp=0.60 / qpmin=10 / qpmax=51 / qpstep=4 / cplxblur=20.0 / qblur=0.5 / ip_ratio=1.40 / pb_ratio=1.30 / aq=1:1.00
Language : English
Default : Yes
Forced : No
Audio
ID : 2
Format : MPEG Audio
Format version : Version 1
Format profile : Layer 3
Muxing mode : Header stripping
Codec ID : A_MPEG/L3
Codec ID/Hint : MP3
Duration : 1h 36mn
Bit rate mode : Constant
Bit rate : 112 Kbps
Channel(s) : 2 channels
Sampling rate : 48.0 KHz
Compression mode : Lossy
Stream size : 77.3 MiB (5%)
Writing library : LAME3.99r
Encoding settings : -m s -V 4 -q 3 -lowpass 15.6 -b 112
Default : Yes
Forced : No
Text
ID : 3
Format : ASS
Codec ID : S_TEXT/ASS
Codec ID/Info : Advanced Sub Station Alpha
Compression mode : Lossless
Default : Yes
Forced : No

Скриншоты

Маньчжурия

Маньчжурия / Manchuria
Продолжительность: 01:37:48
Описание: Фильм рассказывает о Советско-японской войне 1945 года — части Второй Мировой войны и войны на Тихом океане. Она состояла из Маньчжурской и Южно-Сахалинской сухопутных, Курильской и трёх корейских тактических десантных операций.
Видео: H.264, 712:534 (4:3), 1997 Kbps, 25 fps
Аудио: MP3, 128 Kbps, 48 KHz, stereo

MediaInfo

General
Format : Matroska
Format version : Version 4 / Version 2
File size : 1.45 GiB
Duration : 1h 37mn
Overall bit rate : 2 126 Kbps
Encoded date : UTC 2013-03-28 14:04:15
Writing application : mkvmerge v5.9.0 ('On The Loose') built on Dec 31 2012 17:36:59
Writing library : libebml v1.3.0 + libmatroska v1.4.0
Video
ID : 1
Format : AVC
Format/Info : Advanced Video Codec
Format profile : High@L4.1
Format settings, CABAC : Yes
Format settings, ReFrames : 6 frames
Muxing mode : Header stripping
Codec ID : V_MPEG4/ISO/AVC
Duration : 1h 37mn
Bit rate : 1 997 Kbps
Width : 712 pixels
Height : 534 pixels
Display aspect ratio : 4:3
Frame rate : 25.000 fps
Color space : YUV
Chroma subsampling : 4:2:0
Bit depth : 8 bits
Scan type : Progressive
Bits/(Pixel*Frame) : 0.210
Stream size : 1.34 GiB (92%)
Writing library : x264 core 129 r2230 1cffe9f
Encoding settings : cabac=1 / ref=6 / deblock=1:0:0 / analyse=0x3:0x133 / me=umh / subme=7 / psy=0 / mixed_ref=1 / me_range=16 / chroma_me=1 / trellis=1 / 8x8dct=1 / cqm=0 / deadzone=21,11 / fast_pskip=0 / chroma_qp_offset=0 / threads=6 / lookahead_threads=1 / sliced_threads=0 / nr=0 / decimate=0 / interlaced=0 / bluray_compat=0 / constrained_intra=0 / bframes=4 / b_pyramid=2 / b_adapt=2 / b_bias=0 / direct=1 / weightb=1 / open_gop=0 / weightp=2 / keyint=250 / keyint_min=25 / scenecut=40 / intra_refresh=0 / rc=2pass / mbtree=0 / bitrate=1997 / ratetol=1.0 / qcomp=0.60 / qpmin=10 / qpmax=51 / qpstep=4 / cplxblur=20.0 / qblur=0.5 / ip_ratio=1.40 / pb_ratio=1.30 / aq=1:1.00
Language : English
Default : Yes
Forced : No
Audio
ID : 2
Format : MPEG Audio
Format version : Version 1
Format profile : Layer 3
Muxing mode : Header stripping
Codec ID : A_MPEG/L3
Codec ID/Hint : MP3
Duration : 1h 37mn
Bit rate mode : Constant
Bit rate : 128 Kbps
Channel(s) : 2 channels
Sampling rate : 48.0 KHz
Compression mode : Lossy
Stream size : 89.5 MiB (6%)
Writing library : LAME3.99r
Encoding settings : -m s -V 4 -q 3 -lowpass 17 -b 128
Default : Yes
Forced : No
Text
ID : 3
Format : ASS
Codec ID : S_TEXT/ASS
Codec ID/Info : Advanced Sub Station Alpha
Compression mode : Lossless
Default : Yes
Forced : No

Скриншоты

Падение Сингапура

Падение Сингапура / The Fall of Singapore
Продолжительность: 00:51:27
Описание: Документальный фильм о сражении Японии с колониальными войсками Великобритании за полуостров Малайя и главный форпост англичан на Дальнем Востоке - остров Сингапур - в декабре 1941 - феврале 1942 гг.
Видео: H.264, 700:544 (1.287:1), 1834 Kbps, 25 fps
Аудио: MP3, 63 Kbps, 22050 Hz, stereo

MediaInfo

General
Format : Matroska
Format version : Version 4 / Version 2
File size : 698 MiB
Duration : 51mn 27s
Overall bit rate : 1 897 Kbps
Encoded date : UTC 2013-04-25 17:38:39
Writing application : mkvmerge v5.9.0 ('On The Loose') built on Dec 31 2012 17:36:59
Writing library : libebml v1.3.0 + libmatroska v1.4.0
Video
ID : 1
Format : AVC
Format/Info : Advanced Video Codec
Format profile : High@L4.1
Format settings, CABAC : Yes
Format settings, ReFrames : 6 frames
Muxing mode : Header stripping
Codec ID : V_MPEG4/ISO/AVC
Duration : 51mn 27s
Bit rate : 1 834 Kbps
Width : 700 pixels
Height : 544 pixels
Display aspect ratio : 1.287
Frame rate : 25.000 fps
Color space : YUV
Chroma subsampling : 4:2:0
Bit depth : 8 bits
Scan type : Progressive
Bits/(Pixel*Frame) : 0.193
Stream size : 661 MiB (95%)
Writing library : x264 core 125 r2208 d9d2288
Encoding settings : cabac=1 / ref=6 / deblock=1:0:0 / analyse=0x3:0x133 / me=umh / subme=7 / psy=0 / mixed_ref=1 / me_range=16 / chroma_me=1 / trellis=1 / 8x8dct=1 / cqm=0 / deadzone=21,11 / fast_pskip=0 / chroma_qp_offset=0 / threads=6 / lookahead_threads=1 / sliced_threads=0 / nr=0 / decimate=0 / interlaced=0 / bluray_compat=0 / constrained_intra=0 / bframes=4 / b_pyramid=2 / b_adapt=2 / b_bias=0 / direct=1 / weightb=1 / open_gop=0 / weightp=2 / keyint=250 / keyint_min=25 / scenecut=40 / intra_refresh=0 / rc=2pass / mbtree=0 / bitrate=1834 / ratetol=1.0 / qcomp=0.60 / qpmin=10 / qpmax=51 / qpstep=4 / cplxblur=20.0 / qblur=0.5 / ip_ratio=1.40 / pb_ratio=1.30 / aq=1:1.00
Language : English
Default : Yes
Forced : No
Audio
ID : 2
Format : MPEG Audio
Format version : Version 1
Format profile : Layer 3
Muxing mode : Header stripping
Codec ID : A_MPEG/L3
Codec ID/Hint : MP3
Duration : 51mn 27s
Bit rate mode : Constant
Bit rate : 64.0 Kbps
Channel(s) : 2 channels
Sampling rate : 48.0 KHz
Compression mode : Lossy
Stream size : 23.6 MiB (3%)
Writing library : LAME3.99r
Encoding settings : -m s -V 4 -q 3 -lowpass 11 -b 64
Default : Yes
Forced : No
Text
ID : 3
Format : ASS
Codec ID : S_TEXT/ASS
Codec ID/Info : Advanced Sub Station Alpha
Compression mode : Lossless
Default : Yes
Forced : No

Скриншоты

Перл Харбор

Перл Харбор / Pearl Harbor
Продолжительность: 00:49:28
Описание: Атака Перл-Харбора (или, по японским источникам, Гавайская операция) — внезапное комбинированное нападение японской палубной авиации авианосного соединения вице-адмирала Тюити Нагумо и японских сверхмалых подводных лодок, доставленных к месту атаки подводными лодками Японского императорского флота, на американские военно-морскую и воздушные базы, расположенные в окрестностях Пёрл-Харбора на острове Оаху (Гавайские острова), произошедшее воскресным утром 7 декабря 1941 года.
Видео: H.264, 700:544 (1.287:1), 1911 Kbps, 25 fps
Аудио: MP3, 63 Kbps, 22050 Hz, stereo - русский

MediaInfo

General
Format : Matroska
Format version : Version 4 / Version 2
File size : 699 MiB
Duration : 49mn 28s
Overall bit rate : 1 976 Kbps
Encoded date : UTC 2013-04-23 13:55:34
Writing application : mkvmerge v5.9.0 ('On The Loose') built on Dec 31 2012 17:36:59
Writing library : libebml v1.3.0 + libmatroska v1.4.0
Video
ID : 1
Format : AVC
Format/Info : Advanced Video Codec
Format profile : High@L4.1
Format settings, CABAC : Yes
Format settings, ReFrames : 6 frames
Muxing mode : Header stripping
Codec ID : V_MPEG4/ISO/AVC
Duration : 49mn 28s
Bit rate : 1 911 Kbps
Width : 700 pixels
Height : 544 pixels
Display aspect ratio : 1.287
Frame rate : 25.000 fps
Color space : YUV
Chroma subsampling : 4:2:0
Bit depth : 8 bits
Scan type : Progressive
Bits/(Pixel*Frame) : 0.201
Stream size : 663 MiB (95%)
Writing library : x264 core 125 r2208 d9d2288
Encoding settings : cabac=1 / ref=6 / deblock=1:0:0 / analyse=0x3:0x133 / me=umh / subme=7 / psy=0 / mixed_ref=1 / me_range=16 / chroma_me=1 / trellis=1 / 8x8dct=1 / cqm=0 / deadzone=21,11 / fast_pskip=0 / chroma_qp_offset=0 / threads=6 / lookahead_threads=1 / sliced_threads=0 / nr=0 / decimate=0 / interlaced=0 / bluray_compat=0 / constrained_intra=0 / bframes=4 / b_pyramid=2 / b_adapt=2 / b_bias=0 / direct=1 / weightb=1 / open_gop=0 / weightp=2 / keyint=250 / keyint_min=25 / scenecut=40 / intra_refresh=0 / rc=2pass / mbtree=0 / bitrate=1911 / ratetol=1.0 / qcomp=0.60 / qpmin=10 / qpmax=51 / qpstep=4 / cplxblur=20.0 / qblur=0.5 / ip_ratio=1.40 / pb_ratio=1.30 / aq=1:1.00
Language : English
Default : Yes
Forced : No
Audio
ID : 2
Format : MPEG Audio
Format version : Version 1
Format profile : Layer 3
Muxing mode : Header stripping
Codec ID : A_MPEG/L3
Codec ID/Hint : MP3
Duration : 49mn 28s
Bit rate mode : Constant
Bit rate : 64.0 Kbps
Channel(s) : 2 channels
Sampling rate : 48.0 KHz
Compression mode : Lossy
Stream size : 22.6 MiB (3%)
Writing library : LAME3.99r
Encoding settings : -m s -V 4 -q 3 -lowpass 11 -b 64
Default : Yes
Forced : No
Text
ID : 3
Format : ASS
Codec ID : S_TEXT/ASS
Codec ID/Info : Advanced Sub Station Alpha
Compression mode : Lossless
Default : Yes
Forced : No

Скриншоты


_________________
Показать сообщения:    

Текущее время: Сегодня 14:50

Часовой пояс: GMT



Вы не можете начинать темы
Вы не можете отвечать на сообщения
Вы не можете редактировать свои сообщения
Вы не можете удалять свои сообщения
Вы не можете голосовать в опросах
Вы не можете прикреплять файлы к сообщениям
Вы не можете скачивать файлы