Важное объявление!
У Нас Все раздачи мультитрекерные, при нуле пиров в релизах, можете смело вставать на закачку!
 
Автор Сообщение

HUNTER

Стаж:
4 года 10 месяцев
Сообщений:
65473

Репутация: 101

[+] [-]
Вне форума [Профиль] [ЛС]

Поля сражений - Западный вал / Battlefield - The West Wall
Год выпуска: 2001
Страна: Великобритания
Жанр: Документальный
Продолжительность: 01:43:38
Перевод: Профессиональный (одноголосый, канал Discovery)
Русские субтитры: есть (только на непереведенные места)
Описание:
"Западный вал" (нем. Westwall или Западная стена), также известен как "Линия Зигфрида" (нем. Siegfriedstellung)) — система немецких долговременных укреплений, возведённых в 1936—1940 годах на западе Германии, в приграничной полосе от Клеве до Базеля — немецкая линия обороны на суше. Протяженность около 630 км, средняя глубина 35—100 км.
Документальный фильм рассказывает о сражениях союзников с немецкими войсками в период между высадкой в Нормандии и непосредственным штурмом "Западного вала" (июль 1944 - февраль 1945).
Доп. информация:
На DVDrip наложен звук из этой раздачи. Т.к. видеоряд DVDrip и SATrip не совпадает, звук немного отредактирован: на пропущенные места наложены отрезки из оригинала. Которые, где это было необходимо, перевел субтитрами. Переводил на слух, поэтому могут быть ошибки, критику приму к сведению. Перевод данных с ТТХ техники частичный.
На всякий случай оставил оригинальную английскую дорожку отдельным файлом.
То же самое, но на DVD, находится здесь.
качество: DVDRip
формат: MKV
видеокодек: H.264
аудиокодек: MP3
Видео: H.264, 698:528 (4:3), 1893 Kbps, 25 fps
Аудио 1: MP3, 112 Kbps, 48 KHz, stereo - русский
Аудио 2: AC3, 224 Kbps, 48 KHz, stereo - английский [отдельно]

MediaInfo

General
Format : Matroska
Format version : Version 4 / Version 2
File size : 1.45 GiB
Duration : 1h 43mn
Overall bit rate : 2 005 Kbps
Encoded date : UTC 2010-02-22 21:41:31
Writing application : mkvmerge v5.9.0 ('On The Loose') built on Dec 9 2012 15:37:01
Writing library : libebml v1.3.0 + libmatroska v1.4.0
Video
ID : 1
Format : AVC
Format/Info : Advanced Video Codec
Format profile : High@L4.1
Format settings, CABAC : Yes
Format settings, ReFrames : 6 frames
Muxing mode : Header stripping
Codec ID : V_MPEG4/ISO/AVC
Duration : 1h 43mn
Bit rate : 1 893 Kbps
Width : 698 pixels
Height : 528 pixels
Display aspect ratio : 4:3
Frame rate : 25.000 fps
Color space : YUV
Chroma subsampling : 4:2:0
Bit depth : 8 bits
Scan type : Progressive
Bits/(Pixel*Frame) : 0.205
Stream size : 1.34 GiB (92%)
Writing library : x264 core 129 r2230 1cffe9f
Encoding settings : cabac=1 / ref=6 / deblock=1:0:0 / analyse=0x3:0x133 / me=umh / subme=7 / psy=0 / mixed_ref=1 / me_range=16 / chroma_me=1 / trellis=1 / 8x8dct=1 / cqm=0 / deadzone=21,11 / fast_pskip=0 / chroma_qp_offset=0 / threads=6 / lookahead_threads=1 / sliced_threads=0 / nr=0 / decimate=0 / interlaced=0 / bluray_compat=0 / constrained_intra=0 / bframes=4 / b_pyramid=2 / b_adapt=2 / b_bias=0 / direct=1 / weightb=1 / open_gop=0 / weightp=2 / keyint=250 / keyint_min=25 / scenecut=40 / intra_refresh=0 / rc=2pass / mbtree=0 / bitrate=1893 / ratetol=1.0 / qcomp=0.60 / qpmin=10 / qpmax=51 / qpstep=4 / cplxblur=20.0 / qblur=0.5 / ip_ratio=1.40 / pb_ratio=1.30 / aq=1:1.00
Language : English
Default : Yes
Forced : No
Audio
ID : 2
Format : MPEG Audio
Format version : Version 1
Format profile : Layer 3
Muxing mode : Header stripping
Codec ID : A_MPEG/L3
Codec ID/Hint : MP3
Duration : 1h 43mn
Bit rate mode : Constant
Bit rate : 112 Kbps
Channel(s) : 2 channels
Sampling rate : 48.0 KHz
Compression mode : Lossy
Stream size : 83.0 MiB (6%)
Writing library : LAME3.99r
Encoding settings : -m s -V 4 -q 3 -lowpass 15.6 -b 112
Default : Yes
Forced : No
Text
ID : 3
Format : ASS
Codec ID : S_TEXT/ASS
Codec ID/Info : Advanced Sub Station Alpha
Compression mode : Lossless
Default : Yes
Forced : Yes

Скриншоты


_________________
Показать сообщения:    

Текущее время: Сегодня 05:04

Часовой пояс: GMT



Вы не можете начинать темы
Вы не можете отвечать на сообщения
Вы не можете редактировать свои сообщения
Вы не можете удалять свои сообщения
Вы не можете голосовать в опросах
Вы не можете прикреплять файлы к сообщениям
Вы не можете скачивать файлы