Важное объявление!
У Нас Все раздачи мультитрекерные, при нуле пиров в релизах, можете смело вставать на закачку!
Статистика раздачи
Размер:     |    Зарегистрирован:     |    Скачан:     |   
Нет
 
     
 
 
Автор Сообщение

HUNTER

Стаж:
5 лет
Сообщений:
67992

Репутация: 101

[+] [-]
Вне форума [Профиль] [ЛС]

| Все релизы мультфильма || BDRip 720p, 5.08 GB |- P R E S E N T SПолярный экспресс / The Polar Express-
Страна: США
Жанр: мультфильм, фэнтези, приключения, семейный
Продолжительность: 01:39:57
Год выпуска: 2004
Перевод 1: Профессиональный (полное дублирование) "Мосфильм-Мастер"
Перевод 2: Профессиональный (двухголосый закадровый) "Tycoon"
Перевод 3: Профессиональный (многоголосый закадровый) "Киномания"
Перевод 4: Авторский (одноголосый закадровый) Владимир Королёв
Перевод 5: Авторский (одноголосый закадровый) Евгений Рудой
Субтитры: есть-Режиссёр: Роберт Земекис / Robert Zemeckis
Роли озвучивали: Том Хэнкс, Майкл Джитер, Нона Гэй, Питер Сколари, Эдди Дизен, Лесли Хартер Земекис, Чарльз Флайшер, Джош Эли, Марк Мендонка, Роландас Хендрикс, Марк Гудман, Джон Скотт, Грегори Гаст, Шон Скотт, Гордон Харт, Брендан Кинг, Крис Коппола, Джулин Рени...
Роли дублировали: Александр Филиппенко, Дмитрий Мартынов и др.- | | | -Описание: Экранизация одноименной детской книги о необыкновенном путешествии маленького мальчика на волшебном поезде «Полярный экспресс» на Северный полюс к Санта-Клаусу в канун Рождества...-Доп. информация:
  • BDRip 1280x532 (2.406:1) сделан с Blu-Ray диска The Polar Express (2004) Blu-ray CEE 1080p VC-1 DD5.1.
  • За исходные дорожки с переводами "Tycoon" и "Киномания" спасибо 2al2al и Leroy Braun.
  • За чистый голос Евгения Рудого спасибо Savely_75. За готовую DTS-HD MA дорожку с переводом Владимира Королёва спасибо Volshebn1k.
  • Дорожки с переводами Владимира Королёва и Евгения Рудого получены путём наложения голосов на декодированный центральный канал оригинальной Dolby TrueHD 5.1 - xfiles.
  • За исходные украинские звуковые дорожки спасибо salcom aka xslim.
  • Примечание: Дубляж "Мосфильм-Мастер" абсолютно на всех изданиях BD и DVD имеет обрез спектра на уровне 17кГц, что несколько не соответствует качеству AC3/6ch/640kbps. Дорожка оставлена без изменений, дабы не усугублять положение дополнительным пережатием.
  • В исходном видео выполнена достройка 2-х пикселей изображения по вертикали (до 798 пикселей) и при ресайзе к разрешению в этом рипе получена нулевая ошибка AR.
-Сэмпл/Sample (49.1 MB, 1 минута)-Качество: BDRip 720p
Формат: MKV
Видео: 1280x532 (2.406:1), 23,976 fps, ~3559 kbps avg, 0.218 bit/pixel
Аудио #1: Русский, AC3, 6 ch, 48 kHz, 640 kbps - Дубляж | Студия "Мосфильм-Мастер"
Аудио #2: Русский, AC3, 6 ch, 48 kHz, 448 kbps - DVO | "Tycoon"
Аудио #3: Русский, AC3, 6 ch, 48 kHz, 384 kbps - MVO | "Киномания"
Аудио #4: Русский, AC3, 6 ch, 48 kHz, 640 kbps - AVO | Владимир Королёв
Аудио #5: Русский, AC3, 6 ch, 48 kHz, 640 kbps - AVO | Евгений Рудой
Аудио #6: Українська, AC3, 2 ch, 48 kHz, 192 kbps - MVO | "Так треба продакшн" на замовлення ТК "Інтер"
Аудио #7: Українська, AC3, 1 ch, 48 kHz, 128 kbps - MVO | ТК "ICTV"
Аудио #8: English, AC3, 6 ch, 48 kHz, 640 kbps - Original
Субтитры: Русские (полные), Украинские (полные), English (Full, SDH)
Навигация по главам: есть (24 именованных главы)

Знаете ли вы, что...

  • Фильм поставлен по небольшому рассказу Криса Ван Оллсбёрга «Полярный Экспресс», изданному в 1985 году. Рассказ состоял всего из 32 страниц, на которых при этом было огромное количество иллюстраций (Ван Оллсбёрг в первую очередь художник). Поэтому во многом сюжет рассказа дополняли личные идеи Роберта Земекиса.
  • Фильм вошёл в Книгу рекордов Гиннесса как первый фильм, где вся игра актёров передана оцифровкой реальных людей.
  • Роли матери и сестры главного героя «сыграла» жена Роберта Земекиса — Лесли Хартер Земекис.
  • Том Хэнкс «играет» пять ролей в этом фильме: мальчик-главный герой, его отец, проводник, Дух Рождества и Санта Клаус.
  • Адрес, который называет кондуктор в самом начале фильма, — реальный адрес дома, где жил в детстве Роберт Земекис.
  • В сцене, где главный герой дёргает за паровозный гудок, он говорит: «Я мечтал об этом всю жизнь!». То же самое делает Эммет Браун в другом фильме Роберта Земекиса «Назад в Будущее 3» (1990).
  • Паровоз, который тянет Полярный экспресс, смоделирован с реально существующего паровоза «Pere Marquette 1225», который хранится в железнодорожном институте города Овоссо, штат Мичиган. Сотрудники Skywalker Sound специально приезжали в Овоссо записывать его звуки (стук колес, выпуск пара, свист…). Этот паровоз 1941 года постройки, планировалось пустить на слом в 1951 году. Однако в 1957 году он был приобретен Университетом штата Мичиган и выставлен на территории кампуса. В 1971 году группа энтузиастов начала восстановление локомотива до рабочего состояния. Восстановление было завершено в 1985 году, и в 1988 году этот паровоз стал таскать экскурсионные поезда.
  • Вид города Санта-Клауса на северном полюсе отсылает к истории американских железных дорог. Архитектура зданий на площади в центре города основана на архитектуре зданий завода Пульмана, который находится в окрестностях Чикаго. Центр управления завода Санта-Клауса смоделирован на основе интерьера вокзала Pennsylvania Station, расположенного в Нью-Йорке.
  • В сцене, где эльфы исполняют песню «Rockin» On Top of the World», один из эльфов имеет внешность Стивена Тайлера, солиста группы Aerosmith.
  • В сцене в вагоне с брошенными игрушками есть кукла Эбенейзера Скруджа, героя рассказа «Рождественская история» Чарльза Диккенса. Спустя пять лет с момента выхода этой картины, Роберт Земекис снял фильм «Рождественская история» с Джимом Керри в главной роли. Внешность у Эбенейзера такая же как и у куклы в этом фильме.

MediaInfo / x264Log

x264Log

raw [info]: 1280x532p 1:1 @ 24000/1001 fps (cfr)x264 [info]: using SAR=1/1x264 [info]: using cpu capabilities: MMX2 SSE2Fast SSSE3 SSE4.2 AVX XOP FMA4 FMA3 LZCNT BMI1x264 [info]: profile High, level 4.1x264 [info]: frame I:870 Avg QP:12.88 size: 82125 PSNR Mean Y:50.39 U:52.71 V:52.62 Avg:51.00 Global:50.35x264 [info]: frame P:38730 Avg QP:14.78 size: 33253 PSNR Mean Y:49.04 U:51.38 V:51.27 Avg:49.65 Global:48.92x264 [info]: frame B:104173 Avg QP:17.70 size: 12557 PSNR Mean Y:48.41 U:51.01 V:50.85 Avg:49.05 Global:48.24x264 [info]: consecutive B-frames: 4.2% 7.2% 13.1% 27.7% 20.5% 23.2% 2.6% 0.6% 0.4% 0.2% 0.2% 0.3%x264 [info]: mb I I16..4: 6.4% 71.7% 22.0%x264 [info]: mb P I16..4: 1.6% 22.7% 4.3% P16..4: 22.2% 26.6% 11.5% 2.1% 0.2% skip: 8.7%x264 [info]: mb B I16..4: 0.5% 5.4% 0.7% B16..8: 28.2% 22.4% 4.2% direct: 5.1% skip:33.5% L0:40.5% L1:43.1% BI:16.5%x264 [info]: 8x8 transform intra:79.5% inter:58.1%x264 [info]: coded y,uvDC,uvAC intra: 78.4% 72.2% 51.7% inter: 22.6% 17.8% 5.5%x264 [info]: i16 v,h,dc,p: 26% 15% 4% 55%x264 [info]: i8 v,h,dc,ddl,ddr,vr,hd,vl,hu: 13% 13% 12% 7% 9% 9% 11% 10% 15%x264 [info]: i4 v,h,dc,ddl,ddr,vr,hd,vl,hu: 26% 10% 11% 6% 11% 9% 10% 7% 9%x264 [info]: i8c dc,h,v,p: 30% 38% 20% 12%x264 [info]: Weighted P-Frames: Y:4.0% UV:3.1%x264 [info]: ref P L0: 53.4% 9.6% 15.6% 6.3% 4.8% 3.5% 2.8% 1.9% 1.8% 0.4% 0.0%x264 [info]: ref B L0: 78.8% 9.5% 4.5% 2.6% 1.9% 1.5% 0.9% 0.3%x264 [info]: ref B L1: 94.2% 5.8%x264 [info]: SSIM Mean Y:0.9914802 (20.696db)x264 [info]: PSNR Mean Y:48.589 U:51.119 V:50.977 Avg:49.226 Global:48.425 kb/s:3558.63encoded 143773 frames, 9.70 fps, 3558.63 kb/s
GeneralUnique ID : 179204163253498610480699326658771907971 (0x86D1776718B1C0E4B75CC6FDA4CF7583)Complete name : The.Polar.Express.2004.BDRip.720p.dfcbit.mkvFormat : MatroskaFormat version : Version 2File size : 5.08 GiBDuration : 1h 39mnOverall bit rate : 7 275 KbpsEncoded date : UTC 2013-12-27 11:04:52Writing application : mkvmerge v4.0.0 ('The Stars were mine') built on Jun 6 2010 16:18:42Writing library : libebml v1.0.0 + libmatroska v1.0.0
VideoID : 1Format : AVCFormat/Info : Advanced Video CodecFormat profile : High@L4.1Format settings, CABAC : YesFormat settings, ReFrames : 9 framesCodec ID : V_MPEG4/ISO/AVCDuration : 1h 39mnBit rate : 3 559 KbpsWidth : 1 280 pixelsHeight : 532 pixelsDisplay aspect ratio : 2.40:1Frame rate mode : ConstantFrame rate : 23.976 fpsColor space : YUVChroma subsampling : 4:2:0Bit depth : 8 bitsScan type : ProgressiveBits/(Pixel*Frame) : 0.218Stream size : 2.48 GiB (47%)Title : NTSC, 1280x532 (2.406:1), BDRip 720p - tRuAVC & Multfilmy [DFCbit]Writing library : x264 core 140 r2377kMod 1ca7bb9Encoding settings : cabac=1 / ref=9 / deblock=1:-3:-2 / analyse=0x3:0x133 / me=umh / subme=11 / psy=1 / fade_compensate=0.00 / psy_rd=0.60:0.00 / mixed_ref=1 / me_range=32 / chroma_me=1 / trellis=2 / 8x8dct=1 / cqm=0 / deadzone=21,11 / fast_pskip=0 / chroma_qp_offset=-2 / threads=12 / lookahead_threads=3 / sliced_threads=0 / nr=0 / decimate=1 / interlaced=0 / bluray_compat=0 / constrained_intra=0 / fgo=0 / bframes=11 / b_pyramid=2 / b_adapt=2 / b_bias=0 / direct=1 / weightb=1 / open_gop=0 / weightp=2 / keyint=250 / keyint_min=23 / scenecut=40 / intra_refresh=0 / rc_lookahead=70 / rc=crf / mbtree=0 / crf=17.1900 / qcomp=0.80 / qpmin=0 / qpmax=69 / qpstep=4 / vbv_maxrate=50000 / vbv_bufsize=62500 / crf_max=0.0 / nal_hrd=none / filler=0 / ip_ratio=1.40 / pb_ratio=1.30 / aq=3:0.90Language : EnglishDefault : YesForced : NoColor primaries : BT.709Transfer characteristics : BT.709Matrix coefficients : BT.709
Audio #1ID : 2Format : AC-3Format/Info : Audio Coding 3Mode extension : CM (complete main)Format settings, Endianness : BigCodec ID : A_AC3Duration : 1h 39mnBit rate mode : ConstantBit rate : 640 KbpsChannel(s) : 6 channelsChannel positions : Front: L C R, Side: L R, LFESampling rate : 48.0 KHzBit depth : 16 bitsCompression mode : LossyStream size : 457 MiB (9%)Title : AC3, 6 ch, 48 kHz, 640 kbps - Дубляж | Студия "Мосфильм-Мастер"Language : RussianDefault : YesForced : No
Audio #2ID : 3Format : AC-3Format/Info : Audio Coding 3Mode extension : CM (complete main)Format settings, Endianness : BigCodec ID : A_AC3Duration : 1h 39mnBit rate mode : ConstantBit rate : 448 KbpsChannel(s) : 6 channelsChannel positions : Front: L C R, Side: L R, LFESampling rate : 48.0 KHzBit depth : 16 bitsCompression mode : LossyStream size : 320 MiB (6%)Title : AC3, 6 ch, 48 kHz, 448 kbps - DVO | "Tycoon"Language : RussianDefault : NoForced : No
Audio #3ID : 4Format : AC-3Format/Info : Audio Coding 3Mode extension : CM (complete main)Format settings, Endianness : BigCodec ID : A_AC3Duration : 1h 39mnBit rate mode : ConstantBit rate : 384 KbpsChannel(s) : 6 channelsChannel positions : Front: L C R, Side: L R, LFESampling rate : 48.0 KHzBit depth : 16 bitsCompression mode : LossyStream size : 274 MiB (5%)Title : AC3, 6 ch, 48 kHz, 384 kbps - MVO | "Киномания"Language : RussianDefault : NoForced : No
Audio #4ID : 5Format : AC-3Format/Info : Audio Coding 3Mode extension : CM (complete main)Format settings, Endianness : BigCodec ID : A_AC3Duration : 1h 39mnBit rate mode : ConstantBit rate : 640 KbpsChannel(s) : 6 channelsChannel positions : Front: L C R, Side: L R, LFESampling rate : 48.0 KHzBit depth : 16 bitsCompression mode : LossyStream size : 457 MiB (9%)Title : AC3, 6 ch, 48 kHz, 640 kbps - AVO | Владимир КоролёвLanguage : RussianDefault : NoForced : No
Audio #5ID : 6Format : AC-3Format/Info : Audio Coding 3Mode extension : CM (complete main)Format settings, Endianness : BigCodec ID : A_AC3Duration : 1h 39mnBit rate mode : ConstantBit rate : 640 KbpsChannel(s) : 6 channelsChannel positions : Front: L C R, Side: L R, LFESampling rate : 48.0 KHzBit depth : 16 bitsCompression mode : LossyStream size : 457 MiB (9%)Title : AC3, 6 ch, 48 kHz, 640 kbps - AVO | Евгений РудойLanguage : RussianDefault : NoForced : No
Audio #6ID : 7Format : AC-3Format/Info : Audio Coding 3Mode extension : CM (complete main)Format settings, Endianness : BigCodec ID : A_AC3Duration : 1h 39mnBit rate mode : ConstantBit rate : 192 KbpsChannel(s) : 2 channelsChannel positions : Front: L RSampling rate : 48.0 KHzBit depth : 16 bitsCompression mode : LossyStream size : 137 MiB (3%)Title : AC3, 2 ch, 48 kHz, 192 kbps - MVO | "Так треба продакшн" на замовлення ТК "Інтер"Language : UkrainianDefault : NoForced : No
Audio #7ID : 8Format : AC-3Format/Info : Audio Coding 3Mode extension : CM (complete main)Format settings, Endianness : BigCodec ID : A_AC3Duration : 1h 39mnBit rate mode : ConstantBit rate : 128 KbpsChannel(s) : 1 channelChannel positions : Front: CSampling rate : 48.0 KHzBit depth : 16 bitsCompression mode : LossyStream size : 91.5 MiB (2%)Title : AC3, 1 ch, 48 kHz, 128 kbps - MVO | ТК "ICTV"Language : UkrainianDefault : NoForced : No
Audio #8ID : 9Format : AC-3Format/Info : Audio Coding 3Mode extension : CM (complete main)Format settings, Endianness : BigCodec ID : A_AC3Duration : 1h 39mnBit rate mode : ConstantBit rate : 640 KbpsChannel(s) : 6 channelsChannel positions : Front: L C R, Side: L R, LFESampling rate : 48.0 KHzBit depth : 16 bitsCompression mode : LossyStream size : 457 MiB (9%)Title : AC3, 6 ch, 48 kHz, 640 kbps - OriginalLanguage : EnglishDefault : NoForced : No
Text #1ID : 10Format : UTF-8Codec ID : S_TEXT/UTF8Codec ID/Info : UTF-8 Plain TextTitle : SRT, FullLanguage : RussianDefault : NoForced : No
Text #2ID : 11Format : UTF-8Codec ID : S_TEXT/UTF8Codec ID/Info : UTF-8 Plain TextTitle : SRT, FullLanguage : UkrainianDefault : NoForced : No
Text #3ID : 12Format : UTF-8Codec ID : S_TEXT/UTF8Codec ID/Info : UTF-8 Plain TextTitle : SRT, FullLanguage : EnglishDefault : NoForced : No
Text #4ID : 13Format : UTF-8Codec ID : S_TEXT/UTF8Codec ID/Info : UTF-8 Plain TextTitle : SRT, (SDH)Language : EnglishDefault : NoForced : No
Menu00:00:00.000 : en:1. Christmas Eve00:05:07.474 : en:2. All Aboard00:09:46.920 : en:3. Another Passenger00:15:16.415 : en:4. Hot Chocolate00:18:19.765 : en:5. Ticket on the Loose00:23:08.220 : en:6. Hobo on the Roof00:28:07.519 : en:7. Look Who's Driving00:33:43.688 : en:8. Caribou Conversation00:35:25.290 : en:9. Hitting the Ice00:41:37.328 : en:10. Foresaken Toys00:44:45.016 : en:11. When Christmas Comes to Town00:47:06.157 : en:12. The Polar Express00:49:18.622 : en:13. Where's the Brake?00:53:25.869 : en:14. Steven gets a break00:57:18.435 : en:15. Billy's Present01:01:08.999 : en:16. Elf Action01:05:55.785 : en:17. Readying for Santa01:09:55.191 : en:18. I Believe01:12:56.205 : en:19. First Gift of Christmas01:16:28.250 : en:20. Dash Away All!01:19:37.940 : en:21. Tickets Fully Punched01:21:51.406 : en:22. What Matters01:27:10.058 : en:23. For Whom the Bell Rings01:31:21.142 : en:24. End Credits

Скриншоты

Скриншот с названием мультфильма
--BDRip 720p


Source Blu-Ray

Релиз от групп | and | -Данный релиз не будет воспроизводиться на бытовых плеерах не поддерживающих MKV и H.264Обсуждение релизов в AVC формате || Свежие AVC рипы

_________________
Показать сообщения:    

Текущее время: Сегодня 16:46

Часовой пояс: GMT



Вы не можете начинать темы
Вы не можете отвечать на сообщения
Вы не можете редактировать свои сообщения
Вы не можете удалять свои сообщения
Вы не можете голосовать в опросах
Вы не можете прикреплять файлы к сообщениям
Вы не можете скачивать файлы