Важное объявление!
У Нас Все раздачи мультитрекерные, при нуле пиров в релизах, можете смело вставать на закачку!
 
Автор Сообщение

HUNTER

Стаж:
4 года 8 месяцев
Сообщений:
62034

Репутация: 101

[+] [-]
Вне форума [Профиль] [ЛС]

Полцарства за любовь- -Страна: Россия
Жанр: мелодрама
Год выпуска: 2014
Производство: «Кинокомпания "Русское"»
Продолжительность: 01:30:18
Оригинальная аудиодорожка: русский
Cубтитры: нет-Режиссер: Александр Хван-В ролях:
Юлия Паршута, Сергей Марин, Владимир Литвинов, Анна Полупанова,
Татьяна Чернопятова, Татьяна Ухарова, Ангелина Притуманова, Анастасия Исакова-Описание:
Кристина, студентка английского университета, приезжает на каникулы в дом к своему отцу, успешному бизнесмену. Мужчина давно потерял жену и знакомит дочку со своей новой любовью Натальей. Однако взбалмошная, избалованная, привыкшая к роскоши и легким деньгам Кристина не желает принимать ее.
С подачи друга отец избирает неожиданный способ перевоспитания — предлагает Кристине самой позаботиться о себе. Героине предстоит неведомая прежде трудовая жизнь: работа в овощной палатке, сон на раскладушке и общение с простыми людьми. Измученную и голодную, ее подберет простой парень Колян…-Возраст: 12+-Качество: HDTV (1080i)
Формат: TS
Видео кодек: AVC
Аудио кодек: MPEG Audio

Видео: AVC, 1920 х 1080 (16:9), 25,000 кадр/сек, 7 938 Кбит/сек, 0.153 bit/pixel
Аудио: MPEG Audio 2, 48000 Hz, 256 Kbps, 2 канала
-

MediaInfo

General
ID : 1 (0x1)
Complete name : D:\Раздачи\Полцарства за любовь HDTV (1080i)\Poltsarstvo.za.Lyubov.2014.HDTV.(1080i).MediaClub.ts
Format : MPEG-TS
File size : 5.44 GiB
Duration : 1h 30mn
Overall bit rate mode : Variable
Overall bit rate : 8 622 Kbps
Video
ID : 1000 (0x3E8)
Menu ID : 1 (0x1)
Format : AVC
Format/Info : Advanced Video Codec
Format profile : High@L4
Format settings, CABAC : Yes
Format settings, ReFrames : 4 frames
Codec ID : 27
Duration : 1h 30mn
Bit rate : 7 938 Kbps
Width : 1 920 pixels
Height : 1 080 pixels
Display aspect ratio : 16:9
Frame rate : 25.000 fps
Color space : YUV
Chroma subsampling : 4:2:0
Bit depth : 8 bits
Scan type : MBAFF
Scan type, store method : Interleaved fields
Scan order : Top Field First
Bits/(Pixel*Frame) : 0.153
Stream size : 5.01 GiB (92%)
Audio
ID : 1101 (0x44D)
Menu ID : 1 (0x1)
Format : MPEG Audio
Format version : Version 1
Format profile : Layer 2
Codec ID : 3
Duration : 1h 30mn
Bit rate mode : Constant
Bit rate : 256 Kbps
Channel(s) : 2 channels
Sampling rate : 48.0 KHz
Compression mode : Lossy
Stream size : 165 MiB (3%)
Language : English

Скриншоты


-Раздаю до первых 5-ти скачавших, на раздачи не возвращаюсь...-

_________________
Показать сообщения:    

Текущее время: Сегодня 05:58

Часовой пояс: GMT



Вы не можете начинать темы
Вы не можете отвечать на сообщения
Вы не можете редактировать свои сообщения
Вы не можете удалять свои сообщения
Вы не можете голосовать в опросах
Вы не можете прикреплять файлы к сообщениям
Вы не можете скачивать файлы
Наши партнеры: интернет магазин Ивановского трикотажа textilla.ru