Важное объявление!
У Нас Все раздачи мультитрекерные, при нуле пиров в релизах, можете смело вставать на закачку!
 
Автор Сообщение

HUNTER

Стаж:
4 года 8 месяцев
Сообщений:
62016

Репутация: 101

[+] [-]
Вне форума [Профиль] [ЛС]

Полуночная жара / In the Heat of the Night-
Год выпуска: 1967
Выпущено: США
Жанр: драма, криминал, детектив
Продолжительность: 01:50:04
Перевод: Профессиональный (многоголосый, закадровый) SomeWax
+ Профессиональный (двухголосый, закадровый) НТВ+
+ Авторский одноголосый П.Карцев
Оригинальная звуковая дорожка: English
Субтитры: Russian (SomeWax), English-Режиссер: Норман Джуисон / Norman Jewison
В ролях: Сидни Пуатье, Род Стайгер, Уоррен Оутс, Ли Грант, Ларри Гейтс, Джеймс Паттерсон, Уильям Шэллерт, Би Ричардс, Питер Уитни, Кермит Мёрдок
О фильме: В шестидесятые годы в Америке к неграм относились совсем по-другому, нежели сейчас. Расовые предрассудки существовали во всех слоях общества, даже среди полицейских. Обстоятельства складываются так, что белый шериф из провинциального городка вынужден объединить усилия в расследовании чудовищно жестокого убийства с чернокожим детективом из Филадельфии.
Их взаимная неприязнь на расовой почве подкрепляется абсолютным несходством характеров и различными методами ведения следствия. Таким образом, расследование преступления превращается в личную разборку между крутыми полицейскими. Но чтобы выйти на след таинственного убийцы им нужно научиться работать вместе.
SbR!
Релиз: by delia
Формат: MKV
Видео: 1280x694 at 23.976 fps, x264@L4.1, ~9360 kbps avg
Аудио #01: Russian: 48 kHz, AC3, 2/0 (L,R) ch, ~192.00 kbps avg |Многоголосый закадровый, SomeWax|
Аудио #02: Russian: 48 kHz, AC3, 2/0 (L,R) ch, ~192.00 kbps avg |Двухголосый закадровый, НТВ+|
Аудио #03: Russian: 48 kHz, AC3, 2/0 (L,R) ch, ~192.00 kbps avg |Одноголосый закадровый, П.Карцев|
Аудио #04: English: 48 kHz/24-bit, DTS 5.1, ~1509.00 kbps avg
Семпл-Source vs Encode
-
mInfo
Формат : Matroska
Версия формата : Version 4 / Version 2
Размер файла : 8,80 Гбайт
Продолжительность : 1 ч. 50 м.
Общий поток : 11,4 Мбит/сек
Дата кодирования : UTC 2014-05-09 07:57:40
Программа кодирования : mkvmerge v6.9.1 ('Blue Panther') 32bit built on Apr 18 2014 18:15:44
Библиотека кодирования : libebml v1.3.0 + libmatroska v1.4.1
Видео
Идентификатор : 1
Формат : AVC
Формат/Информация : Advanced Video Codec
Профиль формата : High@L4.1
Параметр CABAC формата : Да
Параметр ReFrames формата : 9 кадров
Идентификатор кодека : V_MPEG4/ISO/AVC
Продолжительность : 1 ч. 50 м.
Битрейт : 9136 Кбит/сек
Ширина : 1280 пикселей
Высота : 694 пикселя
Соотношение сторон : 1,85:1
Режим частоты кадров : Постоянный
Частота кадров : 23,976 кадра/сек
Цветовое пространство : YUV
Субдискретизация насыщенности : 4:2:0
Битовая глубина : 8 бит
Тип развёртки : Прогрессивная
Бит/(Пиксели*Кадры) : 0.429
Размер потока : 7,02 Гбайт (80%)
Библиотека кодирования : x264 core 142 r2431kMod ac76440
Настройки программы : cabac=1 / ref=9 / deblock=1:-3:-3 / analyse=0x3:0x133 / me=tesa / subme=10 / psy=1 / fade_compensate=0.00 / psy_rd=1.00:0.00 / mixed_ref=1 / me_range=24 / chroma_me=1 / trellis=2 / 8x8dct=1 / cqm=0 / deadzone=21,11 / fast_pskip=0 / chroma_qp_offset=-2 / threads=6 / lookahead_threads=1 / sliced_threads=0 / nr=0 / decimate=1 / interlaced=0 / bluray_compat=0 / constrained_intra=0 / fgo=0 / bframes=12 / b_pyramid=2 / b_adapt=2 / b_bias=0 / direct=3 / weightb=1 / open_gop=0 / weightp=2 / keyint=250 / keyint_min=23 / scenecut=40 / intra_refresh=0 / rc_lookahead=60 / rc=crf / mbtree=0 / crf=17.2500 / qcomp=0.70 / qpmin=0 / qpmax=69 / qpstep=4 / vbv_maxrate=62500 / vbv_bufsize=78125 / crf_max=0.0 / nal_hrd=none / filler=0 / ip_ratio=1.30 / pb_ratio=1.20 / aq=1:0.80
Язык : English
Default : Да
Forced : Нет
Коэффициенты матрицы : BT.709
Аудио #1
Идентификатор : 2
Формат : AC-3
Формат/Информация : Audio Coding 3
Расширение режима : CM (complete main)
Параметр Endianness формата : Big
Идентификатор кодека : A_AC3
Продолжительность : 1 ч. 50 м.
Вид битрейта : Постоянный
Битрейт : 192 Кбит/сек
Каналы : 2 канала
Расположение каналов : Front: L R
Частота : 48,0 КГц
Битовая глубина : 16 бит
Метод сжатия : С потерями
Размер потока : 151 Мбайт (2%)
Заголовок : Многоголосый закадровый, SomeWax
Язык : Russian
Default : Да
Forced : Нет
Аудио #2
Идентификатор : 3
Формат : AC-3
Формат/Информация : Audio Coding 3
Расширение режима : CM (complete main)
Параметр Endianness формата : Big
Идентификатор кодека : A_AC3
Продолжительность : 1 ч. 50 м.
Вид битрейта : Постоянный
Битрейт : 192 Кбит/сек
Каналы : 2 канала
Расположение каналов : Front: L R
Частота : 48,0 КГц
Битовая глубина : 16 бит
Метод сжатия : С потерями
Размер потока : 151 Мбайт (2%)
Заголовок : Двухголосый закадровый, НТВ+
Язык : Russian
Default : Нет
Forced : Нет
Аудио #3
Идентификатор : 4
Формат : AC-3
Формат/Информация : Audio Coding 3
Расширение режима : CM (complete main)
Параметр Endianness формата : Big
Идентификатор кодека : A_AC3
Продолжительность : 1 ч. 50 м.
Вид битрейта : Постоянный
Битрейт : 192 Кбит/сек
Каналы : 2 канала
Расположение каналов : Front: L R
Частота : 48,0 КГц
Битовая глубина : 16 бит
Метод сжатия : С потерями
Размер потока : 151 Мбайт (2%)
Заголовок : Одноголосый закадровый, П.Карцев
Язык : Russian
Default : Нет
Forced : Нет
Аудио #4
Идентификатор : 5
Формат : DTS
Формат/Информация : Digital Theater Systems
Режим : 16
Параметр Endianness формата : Big
Идентификатор кодека : A_DTS
Продолжительность : 1 ч. 50 м.
Вид битрейта : Постоянный
Битрейт : 1509 Кбит/сек
Каналы : 6 каналов
Расположение каналов : Front: L C R, Side: L R, LFE
Частота : 48,0 КГц
Битовая глубина : 24 бит
Метод сжатия : С потерями
Размер потока : 1,16 Гбайт (13%)
Язык : English
Default : Нет
Forced : Нет
Текст #1
Идентификатор : 6
Формат : UTF-8
Идентификатор кодека : S_TEXT/UTF8
Идентификатор кодека/Информация : UTF-8 Plain Text
Язык : Russian
Default : Нет
Forced : Нет
Текст #2
Идентификатор : 7
Формат : UTF-8
Идентификатор кодека : S_TEXT/UTF8
Идентификатор кодека/Информация : UTF-8 Plain Text
Язык : English
Default : Нет
Forced : Нет
Меню
00:00:00.000 : en:00:00:00.000
00:02:47.584 : en:00:02:47.584
00:06:41.192 : en:00:06:41.192
00:09:10.006 : en:00:09:10.006
00:12:25.452 : en:00:12:25.452
00:21:44.344 : en:00:21:44.344
00:25:58.597 : en:00:25:58.597
00:30:16.689 : en:00:30:16.689
00:33:26.378 : en:00:33:26.378
00:36:27.518 : en:00:36:27.518
00:39:23.693 : en:00:39:23.693
00:44:06.184 : en:00:44:06.184
00:46:29.452 : en:00:46:29.452
00:50:15.052 : en:00:50:15.052
00:53:24.826 : en:00:53:24.826
00:55:53.391 : en:00:55:53.391
00:58:41.643 : en:00:58:41.643
01:06:01.998 : en:01:06:01.998
01:09:32.376 : en:01:09:32.376
01:12:53.952 : en:01:12:53.952
01:18:55.020 : en:01:18:55.020
01:20:08.720 : en:01:20:08.720
01:24:55.465 : en:01:24:55.465
01:31:56.426 : en:01:31:56.426
01:35:14.958 : en:01:35:14.958
01:39:30.088 : en:01:39:30.088
01:43:34.041 : en:01:43:34.041
01:47:30.819 : en:01:47:30.819

-
Цитата:
Цитата:

* Сохранены оригинальные чаптеры как на Blu-ray.
* За дорожку с П.Карцевым большое спасибо int. Качество паршивое. "Растянута" в NTSC без сохранения тона.
* За НТВ+ большое спасибо vedigo.
* За лицензию SomeWax спасибо bm11. Поскольку русская дорога "дутая", оставил только фронты.

_________________
Показать сообщения:    

Текущее время: Сегодня 22:13

Часовой пояс: GMT



Вы не можете начинать темы
Вы не можете отвечать на сообщения
Вы не можете редактировать свои сообщения
Вы не можете удалять свои сообщения
Вы не можете голосовать в опросах
Вы не можете прикреплять файлы к сообщениям
Вы не можете скачивать файлы
Наши партнеры: интернет магазин Ивановского трикотажа textilla.ru