Важное объявление!
У Нас Все раздачи мультитрекерные, при нуле пиров в релизах, можете смело вставать на закачку!
 
Автор Сообщение

HUNTER

Стаж:
4 года 11 месяцев
Сообщений:
66045

Репутация: 101

[+] [-]
Вне форума [Профиль] [ЛС]

Полной грудью / Breathe In
Страна: США
Жанр: драма
Год выпуска: 2013
Продолжительность: 01:37:14
Перевод: Профессиональный (двухголосый закадровый) Продакшн студия ARSPRO*
Cубтитры: русские kot7153, английские
Оригинальная аудиодорожка: английский
-
Режиссер: Дрейк Доримус / Drake Doremus
В ролях: Гай Пирс, Фелисити Джонс, Эми Райан, Маккензи Дэвис, Мэттью Даддарио, Бен Шенкман, Александра Уэнтуорт, Натаниель Пирт, Хьюго Бекер, Шеннон Гарлэнд
-
Описание: Когда иностранная студентка по обмену прибывает в маленький городок на севере штата Нью-Йорк, она навсегда меняет взаимоотношения в принявшей ее семье, а также жизни членов этой семьи.
[img]https://rating.kinopoisk.ru/602709.gif[/img]
*Собственная запись со спутника Eutelsat 36A/36B (36°E) | TV1000 Premium HD (эфир 10.10.2016г.)
Тип релиза: BDRip 720p iNK
Контейнер: MKV
Видео: H.264 / NTSC 16:9 / 1280x538 (2,40:1) / 4926 kbps / 23,976 fps / 0.299 bit/pixel / High@L4.1
Аудио 1: Russian / Dolby Digital Audio / 5.1 Ch / 48 kHz / 384 kbps / 16 bit | DVO | Продакшн студия ARSPRO*
Аудио 2: English / Dolby Digital Audio / 5.1 Ch / 48 kHz / 640 kbps / 16 bit | Original
Формат субтитров: softsub (SRT)
Навигация по главам: есть

x264 Info

Код:
x264 [info]: profile High, level 4.1
x264 [info]: frame I:978   Avg QP:11.86  size: 92691
x264 [info]: frame P:29092 Avg QP:13.81  size: 44859
x264 [info]: frame B:109811 Avg QP:14.35  size: 20005
x264 [info]: consecutive B-frames:  2.5%  2.6%  8.2%  7.6%  7.6% 60.7%  5.2%  1.4%  4.2%

MediaInfo

Код:
Общее
Уникальный идентификатор                 : 179781598167965047250895535303781602964 (0x8740AD245DA39B15A65BC1C145C15694)
Полное имя                               : F:\Breathe In.2013.BDRip.720p.mkv
Формат                                   : Matroska
Версия формата                           : Version 4 / Version 2
Размер файла                             : 4,04 Гбайт
Продолжительность                        : 1 ч. 37 м.
Общий поток                              : 5952 Кбит/сек
Название фильма                          : Release for RuTracker © flaSI-I
Дата кодирования                         : UTC 2016-10-10 15:50:03
Программа кодирования                    : mkvmerge v9.4.2 ('So High') 64bit
Библиотека кодирования                   : libebml v1.3.4 + libmatroska v1.4.5
Видео
Идентификатор                            : 1
Формат                                   : AVC
Формат/Информация                        : Advanced Video Codec
Профиль формата                          : High@L4.1
Параметр CABAC формата                   : Да
Параметр ReFrames формата                : 12 кадров
Идентификатор кодека                     : V_MPEG4/ISO/AVC
Продолжительность                        : 1 ч. 37 м.
Битрейт                                  : 4931 Кбит/сек
Ширина                                   : 1280 пикселей
Высота                                   : 538 пикселей
Соотношение сторон                       : 2,40:1
Режим частоты кадров                     : Постоянный
Частота кадров                           : 23,976 (24000/1001) кадра/сек
Цветовое пространство                    : YUV
Субдискретизация насыщенности            : 4:2:0
Битовая глубина                          : 8 бит
Тип развёртки                            : Прогрессивная
Бит/(Пиксели*Кадры)                      : 0.299
Размер потока                            : 3,35 Гбайт (83%)
Библиотека кодирования                   : x264 core 133 r2334 a3ac64b
Настройки программы                      : cabac=1 / ref=12 / deblock=1:-3:-3 / analyse=0x3:0x113 / me=tesa / subme=11 / psy=1 / psy_rd=1.10:0.00 / mixed_ref=1 / me_range=48 / chroma_me=1 / trellis=2 / 8x8dct=1 / cqm=0 / deadzone=21,11 / fast_pskip=0 / chroma_qp_offset=-4 / threads=12 / lookahead_threads=2 / sliced_threads=0 / nr=0 / decimate=0 / interlaced=0 / bluray_compat=0 / constrained_intra=0 / bframes=8 / b_pyramid=2 / b_adapt=2 / b_bias=0 / direct=3 / weightb=1 / open_gop=0 / weightp=2 / keyint=250 / keyint_min=23 / scenecut=40 / intra_refresh=0 / rc_lookahead=250 / rc=2pass / mbtree=1 / bitrate=4931 / ratetol=1.0 / qcomp=0.75 / qpmin=0 / qpmax=69 / qpstep=4 / cplxblur=20.0 / qblur=0.5 / ip_ratio=1.20 / aq=1:0.85
Язык                                     : English
Default                                  : Да
Forced                                   : Нет
Аудио #1
Идентификатор                            : 2
Формат                                   : AC-3
Формат/Информация                        : Audio Coding 3
Расширение режима                        : CM (complete main)
Параметр Endianness формата              : Big
Идентификатор кодека                     : A_AC3
Продолжительность                        : 1 ч. 37 м.
Вид битрейта                             : Постоянный
Битрейт                                  : 384 Кбит/сек
Каналы                                   : 6 каналов
Расположение каналов                     : Front: L C R, Side: L R, LFE
Частота                                  : 48,0 КГц
Частота кадров                           : 31,250 кадров/сек (1536 spf)
Метод сжатия                             : С потерями
Размер потока                            : 267 Мбайт (6%)
Заголовок                                : DVO | Продакшн студия ARSPRO
Язык                                     : Russian
Default                                  : Да
Forced                                   : Нет
Аудио #2
Идентификатор                            : 3
Формат                                   : AC-3
Формат/Информация                        : Audio Coding 3
Расширение режима                        : CM (complete main)
Параметр Endianness формата              : Big
Идентификатор кодека                     : A_AC3
Продолжительность                        : 1 ч. 37 м.
Вид битрейта                             : Постоянный
Битрейт                                  : 640 Кбит/сек
Каналы                                   : 6 каналов
Расположение каналов                     : Front: L C R, Side: L R, LFE
Частота                                  : 48,0 КГц
Частота кадров                           : 31,250 кадров/сек (1536 spf)
Метод сжатия                             : С потерями
Размер потока                            : 445 Мбайт (11%)
Заголовок                                : Original
Язык                                     : English
Default                                  : Нет
Forced                                   : Нет
Текст #1
Идентификатор                            : 4
Формат                                   : UTF-8
Идентификатор кодека                     : S_TEXT/UTF8
Идентификатор кодека/Информация          : UTF-8 Plain Text
Продолжительность                        : 1 ч. 27 м.
Битрейт                                  : 52 бит/сек
Count of elements                        : 661
Размер потока                            : 33,3 Кбайт (0%)
Заголовок                                : kot7153
Язык                                     : Russian
Default                                  : Нет
Forced                                   : Нет
Текст #2
Идентификатор                            : 5
Формат                                   : UTF-8
Идентификатор кодека                     : S_TEXT/UTF8
Идентификатор кодека/Информация          : UTF-8 Plain Text
Продолжительность                        : 1 ч. 30 м.
Битрейт                                  : 39 бит/сек
Count of elements                        : 770
Размер потока                            : 26,1 Кбайт (0%)
Заголовок                                : Original
Язык                                     : English
Default                                  : Нет
Forced                                   : Нет
Меню
00:00:00.000                             : en:00:00:00.000
00:08:00.188                             : en:00:08:00.188
00:19:39.762                             : en:00:19:39.762
00:29:30.310                             : en:00:29:30.310
00:39:05.468                             : en:00:39:05.468
00:47:19.336                             : en:00:47:19.336
00:52:10.210                             : en:00:52:10.210
01:02:17.275                             : en:01:02:17.275
01:12:28.094                             : en:01:12:28.094
01:20:47.259                             : en:01:20:47.259
01:27:21.403                             : en:01:27:21.403
01:31:45.917                             : en:01:31:45.917

Скриншоты

-


_________________
Показать сообщения:    

Текущее время: Сегодня 10:58

Часовой пояс: GMT



Вы не можете начинать темы
Вы не можете отвечать на сообщения
Вы не можете редактировать свои сообщения
Вы не можете удалять свои сообщения
Вы не можете голосовать в опросах
Вы не можете прикреплять файлы к сообщениям
Вы не можете скачивать файлы