Ивановский Торрент трекер
Яндекс.Погода
 

[Цитировать]
HUNTER

Полковник «Вихрь». Алексей Ботян в тылу врага
Год выпуска: 2012
Страна: Россия
Жанр: Документальный, история, биография
Продолжительность: 00:50:05
Перевод: Не требуется
Описание: Алексей Николаевич Ботян - герой России и кавалер десятка орденов. Судьба этого человека - готовый сценарий для шпионского романа. Ему приходилось быть и русским, и немцем, и поляком, и чехом. Множество лиц, множество имен. Его называют в числе тех, кто в далеком 45-м спасал Краков от уничтожения и считают одним из реальных прототипов прославленного в кино майора Вихря.
Качество: SATRip
Формат: AVI
Видео: XviD, 704x528, (1.33:1), 1499 kbps avg, 25 fps, 0.16 bit/pixel
Аудио: 48 kHz, MPEG Layer 3, 2 ch, ~128.00 kbps avg

MediaInfo

General
Complete name : C:\Users\Acer\Desktop\раздача\Полковник Вихрь. Алексей Ботян в тылу врага.avi
Format : AVI
Format/Info : Audio Video Interleave
File size : 585 MiB
Duration : 50mn 5s
Overall bit rate : 1 633 Kbps
Writing application : MEncoder r33883
Writing library : MPlayer
Video
ID : 0
Format : MPEG-4 Visual
Format profile : Simple@L3
Format settings, BVOP : No
Format settings, QPel : No
Format settings, GMC : No warppoints
Format settings, Matrix : Default (H.263)
Codec ID : XVID
Codec ID/Hint : XviD
Duration : 50mn 5s
Bit rate : 1 499 Kbps
Width : 704 pixels
Height : 528 pixels
Display aspect ratio : 4:3
Frame rate : 25.000 fps
Color space : YUV
Chroma subsampling : 4:2:0
Bit depth : 8 bits
Scan type : Progressive
Compression mode : Lossy
Bits/(Pixel*Frame) : 0.161
Stream size : 537 MiB (92%)
Writing library : XviD 63
Audio
ID : 1
Format : MPEG Audio
Format version : Version 1
Format profile : Layer 3
Mode : Joint stereo
Mode extension : MS Stereo
Codec ID : 55
Codec ID/Hint : MP3
Duration : 50mn 5s
Bit rate mode : Constant
Bit rate : 128 Kbps
Channel(s) : 2 channels
Sampling rate : 48.0 KHz
Compression mode : Lossy
Stream size : 45.9 MiB (8%)
Alignment : Aligned on interleaves
Interleave, duration : 480 ms (12.00 video frames)
Interleave, preload duration : 960 ms
Writing library : LAME3.98r
Encoding settings : -m j -V 4 -q 2 -lowpass 17 -b 128

Скриншоты



Показать сообщения:    

Текущее время: 11-Дек 13:28

Часовой пояс: UTC ± 0


Вы не можете начинать темы
Вы не можете отвечать на сообщения
Вы не можете редактировать свои сообщения
Вы не можете удалять свои сообщения
Вы не можете голосовать в опросах
Вы не можете прикреплять файлы к сообщениям
Вы не можете скачивать файлы

!ВНИМАНИЕ!
Сайт не предоставляет электронные версии произведений, а занимается лишь коллекционированием и каталогизацией ссылок, присылаемых и публикуемых на форуме нашими читателями. Если вы являетесь правообладателем какого-либо представленного материала и не желаете, чтобы ссылка на него находилась в нашем каталоге, свяжитесь с нами, и мы незамедлительно удалим ее. Файлы для обмена на трекере предоставлены пользователями сайта, и администрация не несет ответственности за их содержание. Просьба не заливать файлы, защищенные авторскими правами, а также файлы нелегального содержания!