Полицейская академия 6: Город в осаде / Police Academy 6: City Under Siege (Питер Бонерз / Peter Bonerz) [1989, США, комедия, криминал, BDRemux 1080p] Dub (Варус-Видео) + MVO + DVO (НТВ) + AVO (Андрей Гаврилов) + Sub Eng + Original Eng :: Ивановский Торрент трекер
Важное объявление!
У Нас Все раздачи мультитрекерные, при нуле пиров в релизах, можете смело вставать на закачку!
Статистика раздачи
Размер:     |    Зарегистрирован:     |    Скачан:     |   
Нет
 
     
 
 
Автор Сообщение

HUNTER

Стаж:
4 года 11 месяцев
Сообщений:
66116

Репутация: 101

[+] [-]
Вне форума [Профиль] [ЛС]

Полицейская академия 6: Город в осаде / Police Academy 6: City Under Siege
-
Страна: США
Студия: Warner Bros.
Жанр: комедия, криминал
Год выпуска: 1989
Продолжительность: 01:23:55
Перевод: Профессиональный (дублированный) (Варус-Видео)
Перевод 2: Профессиональный (многоголосый закадровый)
Перевод 3: Профессиональный (двухголосый закадровый) (НТВ)
Перевод 4: Авторский (одноголосый закадровый) (Андрей Гаврилов)
Cубтитры: английские
Оригинальная аудиодорожка: английский
-
Режиссер: Питер Бонерз / Peter Bonerz
Сценарий: Стивен Карвик, Нил Израэл, Пэт Профт
Продюсер: Пол Масланский, Дон Уэст
Композитор: Роберт Фолк
В ролях: Бубба Смит, Дэвид Граф, Майкл Уинслоу, Лесли Истербрук, Мэрион Рэмси, Лэнс Кинси, Мэтт МакКой, Брюс Малер, Дж. У. Бейли, Джордж Гейнс
Описание: Вспышка криминальной активности под кодовым названием «Операция Хаос» может потребовать занавеса для ничего не подозревающего города. Лучшие полицейские специалисты из знаменитой Полицейской Академии взялись за дело.
Мировая Премьера: 10 марта 1989
Сборы в США: $11 567 217
IMDB: http://www.imdb.com/title/tt0098105/?ref_=fn_al_tt_1
Kinopoisk: http://www.kinopoisk.ru/film/24682/
Сэмпл: http://rusfolder.com/39498365
-
Тип релиза: BDRemux 1080p
Контейнер: MKV
Видео: MPEG-4 AVC, 26924 Кбит/с, 1920x1080, 23.976 кадр/с
Аудио: Russian, AC3, 2 ch, 192 Кбит/с (Дублированный, Варус-Видео)
Аудио 2: Russian, AC3, 2 ch, 192 Кбит/с (Профессиональный многоголосый)
Аудио 3: Russian, AC3, 2 ch, 192 Кбит/с (Профессиональный двухголосый, НТВ)
Аудио 4: Russian, AC3, 2 ch, 192 Кбит/с (Авторский, Андрей Гаврилов)
Аудио 5: English, DTS-HD MA, 1.0, 48 kHz, 1052 kbps, 24-bit (DTS Core: 1.0, 48 kHz, 768 kbps, 24-bit)

MediaInfo

Общее
Уникальный идентификатор : 225124025552603257231303708133796276569 (0xA95D4F6959CDD12197AEA5878B2EE959)
Полное имя : E:\Художественные Фильмы\Полицейская Академия\Полицейская.академия.6.Город.в.осаде.1989.BluRay.Remux.1080p.mkv
Формат : Matroska
Версия формата : Version 4 / Version 2
Размер файла : 16,9 Гбайт
Продолжительность : 1 ч. 23 м.
Режим общего битрейта : Переменный
Общий поток : 28,8 Мбит/сек
Дата кодирования : UTC 2013-12-16 16:39:05
Программа кодирования : mkvmerge v6.5.0 ('Isn't she lovely') built on Oct 20 2013 12:50:05
Библиотека кодирования : libebml v1.3.0 + libmatroska v1.4.1
Видео
Идентификатор : 1
Формат : AVC
Формат/Информация : Advanced Video Codec
Профиль формата : High@L4.1
Параметр CABAC формата : Да
Параметр ReFrames формата : 2 кадра
Идентификатор кодека : V_MPEG4/ISO/AVC
Продолжительность : 1 ч. 23 м.
Вид битрейта : Переменный
Ширина : 1920 пикселей
Высота : 1080 пикселей
Соотношение сторон : 16:9
Режим частоты кадров : Постоянный
Частота кадров : 23,976 кадра/сек
Цветовое пространство : YUV
Субдискретизация насыщенности : 4:2:0
Битовая глубина : 8 бит
Тип развёртки : Прогрессивная
Default : Нет
Forced : Нет
Аудио #1
Идентификатор : 2
Формат : AC-3
Формат/Информация : Audio Coding 3
Расширение режима : CM (complete main)
Параметр Endianness формата : Big
Идентификатор кодека : A_AC3
Продолжительность : 1 ч. 23 м.
Вид битрейта : Постоянный
Битрейт : 192 Кбит/сек
Каналы : 2 канала
Расположение каналов : Front: L R
Частота : 48,0 КГц
Битовая глубина : 16 бит
Метод сжатия : С потерями
Размер потока : 115 Мбайт (1%)
Заголовок : Дублированный
Язык : Russian
Default : Да
Forced : Нет
Аудио #2
Идентификатор : 3
Формат : AC-3
Формат/Информация : Audio Coding 3
Расширение режима : CM (complete main)
Параметр Endianness формата : Big
Идентификатор кодека : A_AC3
Продолжительность : 1 ч. 23 м.
Вид битрейта : Постоянный
Битрейт : 192 Кбит/сек
Каналы : 2 канала
Расположение каналов : Front: L R
Частота : 48,0 КГц
Битовая глубина : 16 бит
Метод сжатия : С потерями
Размер потока : 115 Мбайт (1%)
Заголовок : Профессиональный многоголосый
Язык : Russian
Default : Нет
Forced : Нет
Аудио #3
Идентификатор : 4
Формат : AC-3
Формат/Информация : Audio Coding 3
Расширение режима : CM (complete main)
Параметр Endianness формата : Big
Идентификатор кодека : A_AC3
Продолжительность : 1 ч. 23 м.
Вид битрейта : Постоянный
Битрейт : 192 Кбит/сек
Каналы : 2 канала
Расположение каналов : Front: L R
Частота : 48,0 КГц
Битовая глубина : 16 бит
Метод сжатия : С потерями
Размер потока : 115 Мбайт (1%)
Заголовок : Профессиональный двухголосый (НТВ)
Язык : Russian
Default : Нет
Forced : Нет
Аудио #4
Идентификатор : 5
Формат : AC-3
Формат/Информация : Audio Coding 3
Расширение режима : CM (complete main)
Параметр Endianness формата : Big
Идентификатор кодека : A_AC3
Продолжительность : 1 ч. 23 м.
Вид битрейта : Постоянный
Битрейт : 192 Кбит/сек
Каналы : 2 канала
Расположение каналов : Front: L R
Частота : 48,0 КГц
Битовая глубина : 16 бит
Метод сжатия : С потерями
Размер потока : 115 Мбайт (1%)
Заголовок : Авторский - Андрей Гаврилов
Язык : Russian
Default : Нет
Forced : Нет
Аудио #5
Идентификатор : 6
Формат : DTS
Формат/Информация : Digital Theater Systems
Профиль формата : MA / Core
Режим : 16
Параметр Endianness формата : Big
Идентификатор кодека : A_DTS
Продолжительность : 1 ч. 23 м.
Вид битрейта : Переменный
Битрейт : Неизвестно / 768 Кбит/сек
Каналы : 1 канал
Расположение каналов : Front: C
Частота : 48,0 КГц
Битовая глубина : 24 бит
Метод сжатия : Без потерь / Lossy
Язык : English
Default : Нет
Forced : Нет
Текст
Идентификатор : 7
Формат : PGS
Режим смешивания : zlib
Идентификатор кодека : S_HDMV/PGS
Идентификатор кодека/Информация : The same subtitle format used on BDs/HD-DVDs
Язык : English
Default : Да
Forced : Нет
Меню
00:00:00.000 : en:00:00:00.000
00:04:28.185 : en:00:04:28.185
00:06:35.604 : en:00:06:35.604
00:11:30.523 : en:00:11:30.523
00:14:57.772 : en:00:14:57.772
00:18:11.799 : en:00:18:11.799
00:20:16.257 : en:00:20:16.257
00:22:22.967 : en:00:22:22.967
00:24:50.656 : en:00:24:50.656
00:29:43.949 : en:00:29:43.949
00:32:54.014 : en:00:32:54.014
00:36:18.718 : en:00:36:18.718
00:39:51.973 : en:00:39:51.973
00:43:05.875 : en:00:43:05.875
00:46:48.472 : en:00:46:48.472
00:50:05.502 : en:00:50:05.502
00:54:18.464 : en:00:54:18.464
00:56:30.887 : en:00:56:30.887
01:04:41.211 : en:01:04:41.211
01:08:48.958 : en:01:08:48.958
01:15:42.496 : en:01:15:42.496
01:20:57.227 : en:01:20:57.227

Скриншоты


_________________
Показать сообщения:    

Текущее время: Сегодня 16:16

Часовой пояс: GMT



Вы не можете начинать темы
Вы не можете отвечать на сообщения
Вы не можете редактировать свои сообщения
Вы не можете удалять свои сообщения
Вы не можете голосовать в опросах
Вы не можете прикреплять файлы к сообщениям
Вы не можете скачивать файлы