Важное объявление!
У Нас Все раздачи мультитрекерные, при нуле пиров в релизах, можете смело вставать на закачку!
 
Автор Сообщение

HUNTER

Стаж:
4 года 8 месяцев
Сообщений:
62035

Репутация: 101

[+] [-]
Вне форума [Профиль] [ЛС]

Полицейская академия 5: Место назначения – Майами Бич / Police Academy 5: Assignment: Miami Beach
Страна: США
Студия: Warner Bros. Pictures
Жанр: Комедия, криминал
Год выпуска: 1988
Продолжительность: 01:29:50
Перевод: Профессиональный дублированый, Варус Видео
Перевод 2: Профессиональный многоголосый, закадровый Россия
Перевод 3: Профессиональный многоголосый, закадровый Lazer Video
Перевод 4: Профессиональный двухголосый, закадровый Карусель
Перевод 5: Профессиональный двухголосый, закадровый) НТВ
Перевод 6: Авторский одноголосый А.Михалев
Cубтитры: английские SDH
Оригинальная аудиодорожка: английский
Режиссер: Алан Майерсон / Alan Myerson
В ролях: Бубба Смит, Дэвид Граф, Майкл Уинслоу, Лесли Истербрук, Мэрион Рэмси, Джанет Джонс, Лэнс Кинси, Мэтт МакКой, Дж. У. Бейли, Джордж Гейнс
Описание: Солнце, веселье и красивые девушки. Где всему этому быть, как не в Майами Бич? На этом пятом празднике смеха наши герои летят в Майами на чествование любимого коменданта Лассарда. Но у преступников не бывает отпусков, когда отдыхают наши любимые полицейские.
Лассард похищен. И даже соблазнительные пляжные вечеринки не смогут отвлечь наших неистовых бойцов от отчаянной попытки спасения заложника.
Меню: статичное на английском озвученое
Доп. информация: Звук, видео, главы с BLU-RAY - скачан с другого трекера
Субтитры с BDRip
Картинки для меню с двд
Многоголоска Laser Video с BDRip 720p
Видео сжато в Carbon Coder в CBR в один проход.
Аудио получены с помощью программ
Tranzcode и SurCode for Dolby Digital
Диск собран с помощью DVDlabPRO
Спасибо:
VOLSHEBNIK за исходник.
dvdbox за двд
TEPM1HAT0P за Видео мануал по созданию BD>DVD
GarfieldX за инструкцию по обработке и пересжатию звуковых дорожек
Mikky72 за инструкцию по созданию видеодорожки для DVD (mpeg2) и
Авторинг DVD в программе DVDLab

Сэмпл:
https://www.sendspace.com/file/fwvbuz
https://www.sendspace.com/file/zj2hmu
Тип релиза: DVD9 (Custom)
Контейнер: DVD-Video
Видео: NTSC 16:9 (720x480) VBR, Auto Letterboxed
Аудио 1: Русский AC3/ 2.0 / 48 kHz/ 192 kbps, Дубляж, Варус Видео
Аудио 2: Русский AC3/ 2.0 / 48 kHz/ 192 kbps, многоголосый, закадровый Россия
Аудио 3: Русский AC3/ 2.0 / 48 kHz/ 192 kbps, Многоголосый, Laser Video
Аудио 4: Русский AC3/ 1.0 / 48 kHz/ 192 kbps, двухголосый, закадровый Карусель
Аудио 5: Русский AC3/ 2.0 / 48 kHz/ 192 kbps, двухголосый, закадровый) НТВ
Аудио 6: Русский AC3/ 1.0 / 48 kHz/ 192 kbps, Авторский одноголосый А.Михалев
Аудио 7: Английский AC3/ 1.0 / 48 kHz/ 192 kbps, Английский оригинал
Формат субтитров: prerendered (DVD/IDX+SUB)

Информация по сборке

Используемый софт
Программы для разборки
tsMuxeR - разборка BDRemux
Mkvmerge - упаковка в mkv
Видео
ffmsindex - индексирование
AviSynth - обработка видео
Carbon Coder - кодирование видео
Работа со звуком
Tranzcode - извлечение WAW
SurCode for Dolby Digital - конвертация WAV ---> 1.0 AC3
Работа с меню и реавторинг
Adobe Photoshop - работа над меню
DVD-lab PRO 2 - реавторинг диска

MI BDRip

General
Unique ID : 202896566201298128830270564464989678041 (0x98A4750E139FB7B7A587E053A0C5A9D9)
Complete name : D:\PA_5\Police.Academy.5.Assignment.Miami.Beach.1988.720p.BluRay.6xRus.Ukr.Eng.mkv
Format : Matroska
Format version : Version 4 / Version 2
File size : 8.14 GiB
Duration : 1h 29mn
Overall bit rate : 13.0 Mbps
Movie name : Police Academy 5: Assignment: Miami Beach (1988) - Release for HDCLUB
Encoded date : UTC 2014-03-02 18:54:43
Writing application : mkvmerge v6.1.0 ('Old Devil') built on Mar 2 2013 14:32:37
Writing library : libebml v1.3.0 + libmatroska v1.4.0
Video
ID : 1
Format : AVC
Format/Info : Advanced Video Codec
Format profile : High@L4.1
Format settings, CABAC : Yes
Format settings, ReFrames : 9 frames
Codec ID : V_MPEG4/ISO/AVC
Duration : 1h 29mn
Bit rate : 9 439 Kbps
Width : 1 280 pixels
Height : 720 pixels
Display aspect ratio : 16:9
Frame rate mode : Constant
Frame rate : 23.976 fps
Color space : YUV
Chroma subsampling : 4:2:0
Bit depth : 8 bits
Scan type : Progressive
Bits/(Pixel*Frame) : 0.427
Stream size : 5.92 GiB (73%)
Title : HDCLUB
Writing library : x264 core 140 r2377 1ca7bb9
Encoding settings : cabac=1 / ref=9 / deblock=1:-3:-3 / analyse=0x3:0x133 / me=umh / subme=10 / psy=1 / psy_rd=0.95:0.05 / mixed_ref=1 / me_range=32 / chroma_me=1 / trellis=2 / 8x8dct=1 / cqm=0 / deadzone=6,6 / fast_pskip=0 / chroma_qp_offset=-3 / threads=9 / lookahead_threads=1 / sliced_threads=0 / nr=0 / decimate=0 / interlaced=0 / bluray_compat=0 / constrained_intra=0 / bframes=8 / b_pyramid=2 / b_adapt=2 / b_bias=0 / direct=3 / weightb=1 / open_gop=0 / weightp=2 / keyint=250 / keyint_min=23 / scenecut=40 / intra_refresh=0 / rc=crf / mbtree=0 / crf=17.0 / qcomp=0.70 / qpmin=0 / qpmax=40 / qpstep=4 / ip_ratio=1.30 / pb_ratio=1.20 / aq=1:0.75
Language : English
Default : Yes
Forced : No
Matrix coefficients : BT.709
Audio #1
ID : 2
Format : AC-3
Format/Info : Audio Coding 3
Mode extension : CM (complete main)
Format settings, Endianness : Big
Codec ID : A_AC3
Duration : 1h 29mn
Bit rate mode : Constant
Bit rate : 192 Kbps
Channel count : 2 channels
Channel positions : Front: L R
Sampling rate : 48.0 KHz
Bit depth : 16 bits
Compression mode : Lossy
Stream size : 123 MiB (1%)
Title : AC3 2.0 @ 192 kbps - Дубляж, Варус Видео
Language : Russian
Default : Yes
Forced : No
Audio #2
ID : 3
Format : AC-3
Format/Info : Audio Coding 3
Mode extension : CM (complete main)
Format settings, Endianness : Big
Codec ID : A_AC3
Duration : 1h 29mn
Bit rate mode : Constant
Bit rate : 192 Kbps
Channel count : 2 channels
Channel positions : Front: L R
Sampling rate : 48.0 KHz
Bit depth : 16 bits
Compression mode : Lossy
Stream size : 123 MiB (1%)
Title : AC3 2.0 @ 192 kbps - Многоголосый закадровый, Россия
Language : Russian
Default : No
Forced : No
Audio #3
ID : 4
Format : AC-3
Format/Info : Audio Coding 3
Mode extension : CM (complete main)
Format settings, Endianness : Big
Codec ID : A_AC3
Duration : 1h 29mn
Bit rate mode : Constant
Bit rate : 192 Kbps
Channel count : 2 channels
Channel positions : Front: L R
Sampling rate : 48.0 KHz
Bit depth : 16 bits
Compression mode : Lossy
Stream size : 123 MiB (1%)
Title : AC3 2.0 @ 192 kbps - Многоголосый закадровый, Lazer Video
Language : Russian
Default : No
Forced : No
Audio #4
ID : 5
Format : DTS
Format/Info : Digital Theater Systems
Mode : 16
Format settings, Endianness : Big
Codec ID : A_DTS
Duration : 1h 29mn
Bit rate mode : Constant
Bit rate : 768 Kbps
Channel count : 1 channel
Channel positions : Front: C
Sampling rate : 48.0 KHz
Bit depth : 24 bits
Compression mode : Lossy
Stream size : 494 MiB (6%)
Title : DTS 1.0 @ 768 kbps - Двухголосый закадровый, Карусель
Language : Russian
Default : No
Forced : No
Audio #5
ID : 6
Format : AC-3
Format/Info : Audio Coding 3
Mode extension : CM (complete main)
Format settings, Endianness : Big
Codec ID : A_AC3
Duration : 1h 29mn
Bit rate mode : Constant
Bit rate : 192 Kbps
Channel count : 2 channels
Channel positions : Front: L R
Sampling rate : 48.0 KHz
Bit depth : 16 bits
Compression mode : Lossy
Stream size : 123 MiB (1%)
Title : AC3 2.0 @ 192 kbps - Двухголосый закадровый, НТВ
Language : Russian
Default : No
Forced : No
Audio #6
ID : 7
Format : DTS
Format/Info : Digital Theater Systems
Mode : 16
Format settings, Endianness : Big
Codec ID : A_DTS
Duration : 1h 29mn
Bit rate mode : Constant
Bit rate : 768 Kbps
Channel count : 1 channel
Channel positions : Front: C
Sampling rate : 48.0 KHz
Bit depth : 24 bits
Compression mode : Lossy
Stream size : 494 MiB (6%)
Title : DTS 1.0 @ 768 kbps - Одноголосый закадровый, А.Михалев
Language : Russian
Default : No
Forced : No
Audio #7
ID : 8
Format : AC-3
Format/Info : Audio Coding 3
Mode extension : CM (complete main)
Format settings, Endianness : Big
Codec ID : A_AC3
Duration : 1h 29mn
Bit rate mode : Constant
Bit rate : 192 Kbps
Channel count : 2 channels
Channel positions : Front: L R
Sampling rate : 48.0 KHz
Bit depth : 16 bits
Compression mode : Lossy
Stream size : 123 MiB (1%)
Title : AC3 2.0 @ 192 kbps - Многоголосый закадровый, 1+1
Language : Ukrainian
Default : No
Forced : No
Audio #8
ID : 9
Format : DTS
Format/Info : Digital Theater Systems
Mode : 16
Format settings, Endianness : Big
Codec ID : A_DTS
Duration : 1h 29mn
Bit rate mode : Constant
Bit rate : 768 Kbps
Channel count : 1 channel
Channel positions : Front: C
Sampling rate : 48.0 KHz
Bit depth : 24 bits
Compression mode : Lossy
Stream size : 494 MiB (6%)
Title : DTS 1.0 @ 768 kbps
Language : English
Default : No
Forced : No
Text
ID : 10
Format : UTF-8
Codec ID : S_TEXT/UTF8
Codec ID/Info : UTF-8 Plain Text
Language : English
Default : No
Forced : No
Menu
00:00:00.000 : en:00:00:00.000
00:05:50.517 : en:00:05:50.517
00:10:07.857 : en:00:10:07.857
00:15:19.752 : en:00:15:19.752
00:17:33.052 : en:00:17:33.052
00:21:19.570 : en:00:21:19.570
00:27:07.459 : en:00:27:07.459
00:32:01.294 : en:00:32:01.294
00:36:21.805 : en:00:36:21.805
00:41:42.750 : en:00:41:42.750
00:45:20.092 : en:00:45:20.092
00:47:52.912 : en:00:47:52.912
00:50:10.966 : en:00:50:10.966
00:56:19.835 : en:00:56:19.835
00:57:35.494 : en:00:57:35.494
01:03:58.209 : en:01:03:58.209
01:10:54.750 : en:01:10:54.750
01:15:23.769 : en:01:15:23.769
01:20:02.256 : en:01:20:02.256
01:21:52.116 : en:01:21:52.116
01:24:12.005 : en:01:24:12.005
01:27:18.733 : en:01:27:18.733

BDInfo

Disc Title: POLICE_ACADEMY_5_HDCLUB_BY_VOLSHEBNIK
Disc Size: 23 427 226 546 bytes
Protection: AACS
BD-Java: Yes
BDInfo: 0.5.8
Notes:
BDINFO HOME:
Cinema Squid
http://www.cinemasquid.com/blu-ray/tools/bdinfo
INCLUDES FORUMS REPORT FOR:
AVS Forum Blu-ray Audio and Video Specifications Thread
http://www.avsforum.com/avs-vb/showthread.php?t=1155731
********************
PLAYLIST: 00002.MPLS
********************
<--- BEGIN FORUMS PASTE --->
Код:
Total   Video
Title                                                           Codec   Length  Movie Size      Disc Size       Bitrate Bitrate Main Audio Track                          Secondary Audio Track
-----                                                           ------  ------- --------------  --------------  ------- ------- ------------------                        ---------------------
00002.MPLS                                                      AVC     1:29:50 22 889 551 872  23 427 226 546  33,97   27,38   DD AC3 2.0 192Kbps                        DTS-HD Master 1.0 1099Kbps (48kHz/24-bit)
Код:
DISC INFO:
Disc Title:     POLICE_ACADEMY_5_HDCLUB_BY_VOLSHEBNIK
Disc Size:      23 427 226 546 bytes
Protection:     AACS
BD-Java:        Yes
BDInfo:         0.5.8
PLAYLIST REPORT:
Name:                   00002.MPLS
Length:                 1:29:50.718 (h:m:s.ms)
Size:                   22 889 551 872 bytes
Total Bitrate:          33,97 Mbps
VIDEO:
Codec                   Bitrate             Description
-----                   -------             -----------
MPEG-4 AVC Video        27383 kbps          1080p / 23,976 fps / 16:9 / High Profile 4.1
AUDIO:
Codec                           Language        Bitrate         Description
-----                           --------        -------         -----------
Dolby Digital Audio             Russian         192 kbps        2.0 / 48 kHz / 192 kbps / DN -4dB
DTS-HD Master Audio             Russian         1099 kbps       1.0 / 48 kHz / 1099 kbps / 24-bit (DTS Core: 1.0 / 48 kHz / 768 kbps / 24-bit)
Dolby Digital Audio             Russian         192 kbps        2.0 / 48 kHz / 192 kbps / DN -4dB
Dolby Digital Audio             Russian         192 kbps        2.0 / 48 kHz / 192 kbps / DN -4dB
Dolby Digital Audio             Russian         384 kbps        5.0 / 48 kHz / 384 kbps / DN -4dB
DTS-HD Master Audio             Russian         1086 kbps       1.0 / 48 kHz / 1086 kbps / 24-bit (DTS Core: 1.0 / 48 kHz / 768 kbps / 24-bit)
Dolby Digital Audio             Ukrainian       192 kbps        2.0 / 48 kHz / 192 kbps / DN -4dB
DTS-HD Master Audio             English         1071 kbps       1.0 / 48 kHz / 1071 kbps / 24-bit (DTS Core: 1.0 / 48 kHz / 768 kbps / 24-bit)
SUBTITLES:
Codec                           Language        Bitrate         Description
-----                           --------        -------         -----------
Presentation Graphics           English         39,301 kbps
FILES:
Name            Time In         Length          Size            Total Bitrate
----            -------         ------          ----            -------------
00002.M2TS      0:00:00.000     1:29:50.718     22 889 551 872  33 969
CHAPTERS:
Number          Time In         Length          Avg Video Rate  Max 1-Sec Rate  Max 1-Sec Time  Max 5-Sec Rate  Max 5-Sec Time  Max 10Sec Rate  Max 10Sec Time  Avg Frame Size  Max Frame Size  Max Frame Time
------          -------         ------          --------------  --------------  --------------  --------------  --------------  --------------  --------------  --------------  --------------  --------------
1               0:00:00.000     0:05:50.516     26 480 kbps     49 112 kbps     00:00:04.004    36 506 kbps     00:00:02.168    33 127 kbps     00:04:21.886    138 039 bytes   600 708 bytes   00:00:02.335
2               0:05:50.516     0:04:17.340     26 686 kbps     38 096 kbps     00:05:58.191    34 127 kbps     00:05:57.315    31 248 kbps     00:05:54.228    139 127 bytes   548 134 bytes   00:06:29.847
3               0:10:07.857     0:05:11.894     28 167 kbps     44 438 kbps     00:11:07.583    37 615 kbps     00:11:06.791    35 561 kbps     00:11:01.744    146 850 bytes   435 972 bytes   00:10:51.442
4               0:15:19.752     0:02:13.299     27 496 kbps     43 986 kbps     00:15:56.538    35 597 kbps     00:15:47.613    33 784 kbps     00:15:42.650    143 353 bytes   403 306 bytes   00:15:56.580
5               0:17:33.051     0:03:46.517     28 981 kbps     43 990 kbps     00:19:12.776    37 928 kbps     00:18:13.300    36 851 kbps     00:19:12.818    151 093 bytes   462 216 bytes   00:18:24.353
6               0:21:19.569     0:05:47.889     27 442 kbps     41 960 kbps     00:26:26.751    37 259 kbps     00:21:20.862    36 529 kbps     00:21:21.697    143 070 bytes   420 662 bytes   00:21:22.572
7               0:27:07.459     0:04:53.835     29 821 kbps     42 280 kbps     00:29:59.506    38 231 kbps     00:28:58.695    35 020 kbps     00:28:55.191    155 473 bytes   493 526 bytes   00:30:24.280
8               0:32:01.294     0:04:20.510     28 348 kbps     46 940 kbps     00:34:29.025    36 634 kbps     00:34:21.768    34 106 kbps     00:34:20.183    147 794 bytes   461 286 bytes   00:32:03.379
9               0:36:21.804     0:05:20.945     29 971 kbps     45 194 kbps     00:36:47.288    37 475 kbps     00:36:45.286    35 482 kbps     00:36:43.951    156 253 bytes   591 261 bytes   00:38:23.509
10              0:41:42.750     0:03:37.342     27 160 kbps     40 295 kbps     00:43:33.068    36 140 kbps     00:43:32.901    34 621 kbps     00:43:29.898    141 598 bytes   402 363 bytes   00:45:05.869
11              0:45:20.092     0:02:32.819     29 340 kbps     39 629 kbps     00:45:38.402    35 499 kbps     00:45:38.402    34 821 kbps     00:46:37.836    152 968 bytes   457 000 bytes   00:46:38.712
12              0:47:52.911     0:02:18.054     26 795 kbps     34 692 kbps     00:49:00.646    32 084 kbps     00:48:59.895    30 662 kbps     00:49:57.160    139 695 bytes   404 522 bytes   00:48:34.161
13              0:50:10.966     0:06:08.868     25 842 kbps     41 644 kbps     00:52:55.088    32 627 kbps     00:52:53.086    29 201 kbps     00:52:47.664    134 730 bytes   497 411 bytes   00:56:14.788
14              0:56:19.834     0:01:15.658     26 086 kbps     42 434 kbps     00:57:31.865    33 225 kbps     00:57:28.027    29 391 kbps     00:57:23.022    136 002 bytes   458 909 bytes   00:56:21.461
15              0:57:35.493     0:06:22.715     25 229 kbps     35 010 kbps     01:00:40.178    28 603 kbps     01:00:40.094    27 083 kbps     01:00:40.178    131 531 bytes   420 837 bytes   01:02:04.971
16              1:03:58.209     0:06:56.541     26 261 kbps     38 694 kbps     01:10:47.910    35 019 kbps     01:10:47.493    31 424 kbps     01:06:54.885    136 915 bytes   444 506 bytes   01:10:48.327
17              1:10:54.750     0:04:29.018     26 724 kbps     42 093 kbps     01:12:44.651    33 630 kbps     01:12:44.151    31 198 kbps     01:11:14.687    139 327 bytes   439 144 bytes   01:14:37.389
18              1:15:23.769     0:04:38.486     28 165 kbps     50 811 kbps     01:18:05.889    36 483 kbps     01:18:01.885    33 185 kbps     01:15:28.857    146 841 bytes   447 235 bytes   01:16:07.145
19              1:20:02.255     0:01:49.859     32 092 kbps     43 762 kbps     01:21:12.701    38 203 kbps     01:20:58.103    36 191 kbps     01:20:58.103    167 315 bytes   543 540 bytes   01:20:19.940
20              1:21:52.115     0:02:19.889     30 735 kbps     43 757 kbps     01:22:35.867    34 735 kbps     01:22:35.867    33 822 kbps     01:22:56.346    160 236 bytes   465 965 bytes   01:23:40.932
21              1:24:12.005     0:03:06.728     26 129 kbps     47 274 kbps     01:26:58.087    37 949 kbps     01:26:54.083    36 534 kbps     01:26:49.621    136 226 bytes   473 836 bytes   01:24:51.961
22              1:27:18.733     0:02:25.687     21 899 kbps     35 321 kbps     01:27:22.820    33 407 kbps     01:27:19.067    27 594 kbps     01:27:18.733    114 173 bytes   516 865 bytes   01:27:58.773
23              1:29:44.420     0:00:06.297     3 270 kbps      6 669 kbps      01:29:45.880    4 101 kbps      01:29:44.420    0 kbps          00:00:00.000    17 163 bytes    90 977 bytes    01:29:46.047
STREAM DIAGNOSTICS:
File            PID             Type            Codec           Language                Seconds                 Bitrate                 Bytes           Packets
----            ---             ----            -----           --------                --------------          --------------          -------------   -----
00002.M2TS      4113 (0x1011)   0x1B            AVC                                     5390,635                27 383                  18 451 466 419  100 355 824
00002.M2TS      4352 (0x1100)   0x81            AC3             rus (Russian)           5390,635                192                     129 400 320     842 450
00002.M2TS      4353 (0x1101)   0x86            DTS-HD MA       rus (Russian)           5390,635                1 099                   740 625 420     4 571 927
00002.M2TS      4354 (0x1102)   0x81            AC3             rus (Russian)           5390,635                192                     129 400 320     842 450
00002.M2TS      4355 (0x1103)   0x81            AC3             rus (Russian)           5390,635                192                     129 400 320     842 450
00002.M2TS      4356 (0x1104)   0x81            AC3             rus (Russian)           5390,635                384                     258 800 640     1 516 410
00002.M2TS      4357 (0x1105)   0x86            DTS-HD MA       rus (Russian)           5390,635                1 086                   731 567 424     4 541 695
00002.M2TS      4358 (0x1106)   0x81            AC3             ukr (Ukrainian)         5390,635                192                     129 400 320     842 450
00002.M2TS      4359 (0x1107)   0x86            DTS-HD MA       eng (English)           5390,635                1 071                   721 409 916     4 527 388
00002.M2TS      4608 (0x1200)   0x90            PGS             eng (English)           5390,635                39                      26 482 639      152 718
<---- END FORUMS PASTE ---->
QUICK SUMMARY:
Disc Title: POLICE_ACADEMY_5_HDCLUB_BY_VOLSHEBNIK
Disc Size: 23 427 226 546 bytes
Protection: AACS
BD-Java: Yes
Playlist: 00002.MPLS
Size: 22 889 551 872 bytes
Length: 1:29:50.718
Total Bitrate: 33,97 Mbps
Video: MPEG-4 AVC Video / 27383 kbps / 1080p / 23,976 fps / 16:9 / High Profile 4.1
Audio: Russian / Dolby Digital Audio / 2.0 / 48 kHz / 192 kbps / DN -4dB
Audio: Russian / DTS-HD Master Audio / 1.0 / 48 kHz / 1099 kbps / 24-bit (DTS Core: 1.0 / 48 kHz / 768 kbps / 24-bit)
Audio: Russian / Dolby Digital Audio / 2.0 / 48 kHz / 192 kbps / DN -4dB
Audio: Russian / Dolby Digital Audio / 2.0 / 48 kHz / 192 kbps / DN -4dB
Audio: Russian / Dolby Digital Audio / 5.0 / 48 kHz / 384 kbps / DN -4dB
Audio: Russian / DTS-HD Master Audio / 1.0 / 48 kHz / 1086 kbps / 24-bit (DTS Core: 1.0 / 48 kHz / 768 kbps / 24-bit)
Audio: Ukrainian / Dolby Digital Audio / 2.0 / 48 kHz / 192 kbps / DN -4dB
Audio: English / DTS-HD Master Audio / 1.0 / 48 kHz / 1071 kbps / 24-bit (DTS Core: 1.0 / 48 kHz / 768 kbps / 24-bit)
Subtitle: English / 39,301 kbps
********************
PLAYLIST: 00003.MPLS
********************
<--- BEGIN FORUMS PASTE --->
Код:
Total   Video
Title                                                           Codec   Length  Movie Size      Disc Size       Bitrate Bitrate Main Audio Track                          Secondary Audio Track
-----                                                           ------  ------- --------------  --------------  ------- ------- ------------------                        ---------------------
00003.MPLS                                                      AVC     0:07:42 416 710 656     23 427 226 546  7,20    4,93    DD AC3 2.0 192Kbps
Код:
DISC INFO:
Disc Title:     POLICE_ACADEMY_5_HDCLUB_BY_VOLSHEBNIK
Disc Size:      23 427 226 546 bytes
Protection:     AACS
BD-Java:        Yes
BDInfo:         0.5.8
PLAYLIST REPORT:
Name:                   00003.MPLS
Length:                 0:07:42.829 (h:m:s.ms)
Size:                   416 710 656 bytes
Total Bitrate:          7,20 Mbps
VIDEO:
Codec                   Bitrate             Description
-----                   -------             -----------
MPEG-4 AVC Video        4926 kbps           480i / 29,970 fps / 4:3 / High Profile 4.0
AUDIO:
Codec                           Language        Bitrate         Description
-----                           --------        -------         -----------
Dolby Digital Audio             English         192 kbps        2.0 / 48 kHz / 192 kbps / DN -4dB / Dolby Surround
Dolby Digital Audio             English         192 kbps        2.0 / 48 kHz / 192 kbps / DN -4dB / Dolby Surround
Dolby Digital Audio             English         192 kbps        2.0 / 48 kHz / 192 kbps / DN -4dB / Dolby Surround
Dolby Digital Audio             English         192 kbps        2.0 / 48 kHz / 192 kbps / DN -4dB / Dolby Surround
Dolby Digital Audio             English         192 kbps        2.0 / 48 kHz / 192 kbps / DN -4dB / Dolby Surround
Dolby Digital Audio             English         192 kbps        2.0 / 48 kHz / 192 kbps / DN -4dB / Dolby Surround
Dolby Digital Audio             English         192 kbps        2.0 / 48 kHz / 192 kbps / DN -4dB / Dolby Surround
Dolby Digital Audio             English         192 kbps        2.0 / 48 kHz / 192 kbps / DN -4dB / Dolby Surround
SUBTITLES:
Codec                           Language        Bitrate         Description
-----                           --------        -------         -----------
Presentation Graphics           English         19,781 kbps
FILES:
Name            Time In         Length          Size            Total Bitrate
----            -------         ------          ----            -------------
00003.M2TS      0:00:00.000     0:07:42.829     416 710 656     7 203
CHAPTERS:
Number          Time In         Length          Avg Video Rate  Max 1-Sec Rate  Max 1-Sec Time  Max 5-Sec Rate  Max 5-Sec Time  Max 10Sec Rate  Max 10Sec Time  Avg Frame Size  Max Frame Size  Max Frame Time
------          -------         ------          --------------  --------------  --------------  --------------  --------------  --------------  --------------  --------------  --------------  --------------
1               0:00:00.000     0:07:37.356     4 960 kbps      8 019 kbps      00:06:40.199    6 536 kbps      00:06:39.399    6 028 kbps      00:06:34.894    20 685 bytes    71 294 bytes    00:00:22.389
2               0:07:37.356     0:00:05.472     2 141 kbps      2 881 kbps      00:07:38.925    2 239 kbps      00:07:37.356    0 kbps          00:00:00.000    8 987 bytes     27 385 bytes    00:07:41.527
STREAM DIAGNOSTICS:
File            PID             Type            Codec           Language                Seconds                 Bitrate                 Bytes           Packets
----            ---             ----            -----           --------                --------------          --------------          -------------   -----
00003.M2TS      4113 (0x1011)   0x1B            AVC                                     462,762                 4 927                   285 015 543     1 564 143
00003.M2TS      4352 (0x1100)   0x81            AC3             eng (English)           462,762                 192                     11 109 120      72 325
00003.M2TS      4353 (0x1101)   0x81            AC3             eng (English)           462,762                 192                     11 109 120      72 325
00003.M2TS      4354 (0x1102)   0x81            AC3             eng (English)           462,762                 192                     11 109 120      72 325
00003.M2TS      4355 (0x1103)   0x81            AC3             eng (English)           462,762                 192                     11 109 120      72 325
00003.M2TS      4356 (0x1104)   0x81            AC3             eng (English)           462,762                 192                     11 109 120      72 325
00003.M2TS      4357 (0x1105)   0x81            AC3             eng (English)           462,762                 192                     11 109 120      72 325
00003.M2TS      4358 (0x1106)   0x81            AC3             eng (English)           462,762                 192                     11 109 120      72 325
00003.M2TS      4359 (0x1107)   0x81            AC3             eng (English)           462,762                 192                     11 109 120      72 325
00003.M2TS      4608 (0x1200)   0x90            PGS             eng (English)           462,762                 20                      1 144 415       7 169
<---- END FORUMS PASTE ---->
QUICK SUMMARY:
Disc Title: POLICE_ACADEMY_5_HDCLUB_BY_VOLSHEBNIK
Disc Size: 23 427 226 546 bytes
Protection: AACS
BD-Java: Yes
Playlist: 00003.MPLS
Size: 416 710 656 bytes
Length: 0:07:42.829
Total Bitrate: 7,20 Mbps
Video: MPEG-4 AVC Video / 4926 kbps / 480i / 29,970 fps / 4:3 / High Profile 4.0
Audio: English / Dolby Digital Audio / 2.0 / 48 kHz / 192 kbps / DN -4dB / Dolby Surround
Audio: English / Dolby Digital Audio / 2.0 / 48 kHz / 192 kbps / DN -4dB / Dolby Surround
Audio: English / Dolby Digital Audio / 2.0 / 48 kHz / 192 kbps / DN -4dB / Dolby Surround
Audio: English / Dolby Digital Audio / 2.0 / 48 kHz / 192 kbps / DN -4dB / Dolby Surround
Audio: English / Dolby Digital Audio / 2.0 / 48 kHz / 192 kbps / DN -4dB / Dolby Surround
Audio: English / Dolby Digital Audio / 2.0 / 48 kHz / 192 kbps / DN -4dB / Dolby Surround
Audio: English / Dolby Digital Audio / 2.0 / 48 kHz / 192 kbps / DN -4dB / Dolby Surround
Audio: English / Dolby Digital Audio / 2.0 / 48 kHz / 192 kbps / DN -4dB / Dolby Surround
Subtitle: English / 19,781 kbps
********************
PLAYLIST: 00004.MPLS
********************
<--- BEGIN FORUMS PASTE --->
Код:
Total   Video
Title                                                           Codec   Length  Movie Size      Disc Size       Bitrate Bitrate Main Audio Track                          Secondary Audio Track
-----                                                           ------  ------- --------------  --------------  ------- ------- ------------------                        ---------------------
00004.MPLS                                                      AVC     0:01:27 59 553 792      23 427 226 546  5,47    4,91    DD AC3 2.0 192Kbps
Код:
DISC INFO:
Disc Title:     POLICE_ACADEMY_5_HDCLUB_BY_VOLSHEBNIK
Disc Size:      23 427 226 546 bytes
Protection:     AACS
BD-Java:        Yes
BDInfo:         0.5.8
PLAYLIST REPORT:
Name:                   00004.MPLS
Length:                 0:01:27.120 (h:m:s.ms)
Size:                   59 553 792 bytes
Total Bitrate:          5,47 Mbps
VIDEO:
Codec                   Bitrate             Description
-----                   -------             -----------
MPEG-4 AVC Video        4912 kbps           480i / 29,970 fps / 16:9 / High Profile 4.0
AUDIO:
Codec                           Language        Bitrate         Description
-----                           --------        -------         -----------
Dolby Digital Audio             English         192 kbps        2.0 / 48 kHz / 192 kbps / DN -4dB / Dolby Surround
FILES:
Name            Time In         Length          Size            Total Bitrate
----            -------         ------          ----            -------------
00004.M2TS      0:00:00.000     0:01:27.120     59 553 792      5 469
CHAPTERS:
Number          Time In         Length          Avg Video Rate  Max 1-Sec Rate  Max 1-Sec Time  Max 5-Sec Rate  Max 5-Sec Time  Max 10Sec Rate  Max 10Sec Time  Avg Frame Size  Max Frame Size  Max Frame Time
------          -------         ------          --------------  --------------  --------------  --------------  --------------  --------------  --------------  --------------  --------------  --------------
1               0:00:00.000     0:01:25.985     4 976 kbps      9 701 kbps      00:00:02.102    6 214 kbps      00:00:10.710    5 688 kbps      00:00:29.496    20 748 bytes    153 899 bytes   00:00:02.268
2               0:01:25.985     0:00:01.134     20 kbps         21 kbps         00:01:26.086    0 kbps          00:00:00.000    0 kbps          00:00:00.000    86 bytes        90 bytes        00:01:27.087
STREAM DIAGNOSTICS:
File            PID             Type            Codec           Language                Seconds                 Bitrate                 Bytes           Packets
----            ---             ----            -----           --------                --------------          --------------          -------------   -----
00004.M2TS      4113 (0x1011)   0x1B            AVC                                     87,054                  4 916                   53 490 795      293 625
00004.M2TS      4352 (0x1100)   0x81            AC3             eng (English)           87,054                  192                     2 092 032       13 620
<---- END FORUMS PASTE ---->
QUICK SUMMARY:
Disc Title: POLICE_ACADEMY_5_HDCLUB_BY_VOLSHEBNIK
Disc Size: 23 427 226 546 bytes
Protection: AACS
BD-Java: Yes
Playlist: 00004.MPLS
Size: 59 553 792 bytes
Length: 0:01:27.120
Total Bitrate: 5,47 Mbps
Video: MPEG-4 AVC Video / 4912 kbps / 480i / 29,970 fps / 16:9 / High Profile 4.0
Audio: English / Dolby Digital Audio / 2.0 / 48 kHz / 192 kbps / DN -4dB / Dolby Surround

Скриншоты программ и настроек

Точка перехода

Скрипт

LoadPlugin("D:\Program Files\FFMpegSource2\ffms2.dll")
FFVideoSource("D:\PA_5\PA_5.mkv")
LoadPlugin("D:\Program Files\AutoYUY2\AutoYUY2.dll")
AutoYUY2()
LoadPlugin("D:\Program Files\ColorMatrix\ColorMatrix.dll")
ColorMatrix(mode="Rec.709->Rec.601", inputFR=false, clamp=0)
BicubicResize(720, 480, 0, 0.5)

Скриншоты меню

Скриншоты


-
Полицейская Академия - Антология
Полицейская академия
Полицейская академия 2: Их первое задание
Полицейская академия 3: Переподготовка

_________________
Показать сообщения:    

Текущее время: Сегодня 19:24

Часовой пояс: GMT



Вы не можете начинать темы
Вы не можете отвечать на сообщения
Вы не можете редактировать свои сообщения
Вы не можете удалять свои сообщения
Вы не можете голосовать в опросах
Вы не можете прикреплять файлы к сообщениям
Вы не можете скачивать файлы
Наши партнеры: интернет магазин Ивановского трикотажа textilla.ru