Важное объявление!
У Нас Все раздачи мультитрекерные, при нуле пиров в релизах, можете смело вставать на закачку!
 
Автор Сообщение

HUNTER

Стаж:
4 года 7 месяцев
Сообщений:
61460

Репутация: 101

[+] [-]
Вне форума [Профиль] [ЛС]

Поле битвы / Battleground
Страна: США
Жанр: боевик, драма, военный
Год выпуска: 1949
Продолжительность: 01:58:35
Перевод: Профессиональный (многоголосый закадровый) Светла
Cубтитры: английские
Оригинальная аудиодорожка: английский
Режиссер: Уильям А. Уэллмен / William A. Wellman
В ролях: Ван Джонсон, Джон Ходиак, Рикардо Монтальбан, Джордж Мерфи, Маршалл Томпсон, Джером Куртлэнд, Дон Тейлор, Брюс Коулинг, Джеймс Уитмор, Дуглас Фоули
Описание: Сюжет фильма посвящен одному из эпизодов знаменитой Арденнской операции — последнему серьезному наступлению Германии, против сил союзников в Бельгии. Декабрь 1944 года. Германия бесповоротно проигрывает Вторую мировую войну. Гитлер, пытаясь остановить продвижение союзных войск и предотвратить крах Третьего Рейха, решаетпредпринять отчаянный шаг к спасению — контрудар.
Сто первая десантная дивизия США — по прозвищу «Кричащие Орлы» заброшена в один из сельских районов Франции, ее цель противостоять натиску нацистов. Однако из-за плохой поддержки с воздуха и отсутствия боеприпасов одна из частей десантников возглавляемая офицером Холли, попадает в окружение. Парням необходимо прорвать блокаду и отразить основной удар немецких войск на своем направление, но перед этим солдатам и офицерам перестоит преодолеть немало трудностей и невзгод на холодном декабрьском снегу Нормандии, прежде чем они получат долгожданные боеприпасы и вступят в решающий бой, став героями и братьями по оружию…
Доп. информация:


За русскую дорожку спасибо Diver 83
Сэмпл: https://www.sendspace.com/file/29f7f6
Тип релиза: WEB-DL 720p
Контейнер: MKV
Видео: AVC, 956x720, L3.1, 23.976fps, 3925kbps
Аудио 1: Russian: AC3, 48000Hz, 2ch, 192kbps
Аудио 2: English: AC3, 48000Hz, 2ch, 192kbps - DVD
Аудио 3: English: AAC, 48000Hz, 2ch, 108kbps - WEB-DL
Формат субтитров: softsub (SRT)

MediaInfo

Общее
Уникальный идентификатор : 180858970882733727338338029131603697447 (0x88102BB7CE69E18692DDA86A5060DF27)
Полное имя : T:\Поле битвы (Battleground) (WEB-DL 720p).mkv
Формат : Matroska
Версия формата : Version 4 / Version 2
Размер файла : 3,66 Гбайт
Продолжительность : 1 ч. 58 м.
Общий поток : 4416 Кбит/сек
Дата кодирования : UTC 2014-09-17 10:22:10
Программа кодирования : mkvmerge v6.9.1 ('Blue Panther') 64bit built on Apr 18 2014 18:23:38
Библиотека кодирования : libebml v1.3.0 + libmatroska v1.4.1
Видео
Идентификатор : 1
Формат : AVC
Формат/Информация : Advanced Video Codec
Профиль формата : Main@L3.1
Параметр CABAC формата : Нет
Параметр ReFrames формата : 2 кадра
Идентификатор кодека : V_MPEG4/ISO/AVC
Продолжительность : 1 ч. 58 м.
Ширина : 956 пикселей
Высота : 720 пикселей
Соотношение сторон : 4:3
Режим частоты кадров : Постоянный
Частота кадров : 23,976 кадра/сек
Цветовое пространство : YUV
Субдискретизация насыщенности : 4:2:0
Битовая глубина : 8 бит
Тип развёртки : Прогрессивная
Язык : English
Default : Да
Forced : Нет
Основные цвета : BT.709
Характеристики трансфера : BT.709
Коэффициенты матрицы : BT.709
Аудио #1
Идентификатор : 2
Формат : AC-3
Формат/Информация : Audio Coding 3
Расширение режима : CM (complete main)
Параметр Endianness формата : Big
Идентификатор кодека : A_AC3
Продолжительность : 1 ч. 58 м.
Вид битрейта : Постоянный
Битрейт : 192 Кбит/сек
Каналы : 2 канала
Расположение каналов : Front: L R
Частота : 48,0 КГц
Битовая глубина : 16 бит
Метод сжатия : С потерями
Размер потока : 163 Мбайт (4%)
Заголовок : Светла
Язык : Russian
Default : Нет
Forced : Нет
Аудио #2
Идентификатор : 3
Формат : AC-3
Формат/Информация : Audio Coding 3
Расширение режима : CM (complete main)
Параметр Endianness формата : Big
Идентификатор кодека : A_AC3
Продолжительность : 1 ч. 58 м.
Вид битрейта : Постоянный
Битрейт : 192 Кбит/сек
Каналы : 2 канала
Расположение каналов : Front: L R
Частота : 48,0 КГц
Битовая глубина : 16 бит
Метод сжатия : С потерями
Размер потока : 163 Мбайт (4%)
Заголовок : DVD
Язык : English
Default : Нет
Forced : Нет
Аудио #3
Идентификатор : 4
Формат : AAC
Формат/Информация : Advanced Audio Codec
Профиль формата : LC
Идентификатор кодека : A_AAC
Продолжительность : 1 ч. 58 м.
Каналы : 2 канала
Расположение каналов : Front: L R
Частота : 48,0 КГц
Метод сжатия : С потерями
Заголовок : WEB-DL
Язык : English
Default : Нет
Forced : Нет
Текст
Идентификатор : 5
Формат : UTF-8
Идентификатор кодека : S_TEXT/UTF8
Идентификатор кодека/Информация : UTF-8 Plain Text
Язык : English
Default : Нет
Forced : Нет
Меню
00:00:00.000 : en:CREDITS AND DEDICATION.
00:02:05.000 : en:THE DRILL.
00:06:27.000 : en:TENT TALK.
00:11:59.000 : en:SECRET MOVE.
00:16:38.000 : en:BASTOGNE.
00:19:47.000 : en:GOOD NIGHT, SOLDIER.
00:25:12.000 : en:STRATEGIC WITHDRAWALS.
00:28:12.000 : en:DIGGING IN.
00:33:56.000 : en:SHARED EGGS.
00:38:11.000 : en:SAD NEWS.
00:42:41.000 : en:INCOMING MAIL.
00:47:22.000 : en:WHATS THE PASSWORD?
00:49:58.000 : en:PITCHING SNOWBALLS.
00:53:03.000 : en:ENEMY IN THEIR MIDST.
00:57:22.000 : en:PASSING OF THE HELMET.
01:01:27.000 : en:RETURNING FOR RODRIGUEZ.
01:05:29.000 : en:AGAINST THE RULES.
01:10:14.000 : en:BY THE EMBANKMENT.
01:14:22.000 : en:UNDER ATTACK.
01:18:44.000 : en:SUPRISING THE ENEMY.
01:21:44.000 : en:WANTING TO REMEMBER.
01:26:34.000 : en:ANSWER: NUTS.
01:32:36.000 : en:CHRISTMAS CARD.
01:35:32.000 : en:WAS THIS TRIP NECESSARY?
01:39:11.000 : en:BOMBING BASTOGNE.
01:43:59.000 : en:SUNLIGHT AND SUPPLIES.
01:51:16.000 : en:ABOUT FACE.
01:55:46.000 : en:DRILL TO THE REAR.
01:57:22.000 : en:CAST LIST.

Скриншоты


_________________
Показать сообщения:    

Текущее время: Сегодня 01:21

Часовой пояс: GMT



Вы не можете начинать темы
Вы не можете отвечать на сообщения
Вы не можете редактировать свои сообщения
Вы не можете удалять свои сообщения
Вы не можете голосовать в опросах
Вы не можете прикреплять файлы к сообщениям
Вы не можете скачивать файлы
Наши партнеры: интернет магазин Ивановского трикотажа textilla.ru