Важное объявление!
У Нас Все раздачи мультитрекерные, при нуле пиров в релизах, можете смело вставать на закачку!
Статистика раздачи
Размер:     |    Зарегистрирован:     |    Скачан:     |   
Нет
 
     
 
 
Автор Сообщение

HUNTER

Стаж:
5 лет 1 месяц
Сообщений:
68449

Репутация: 101

[+] [-]
Вне форума [Профиль] [ЛС]

Покушения / Франц Фердинанд
Год выпуска: 2013
Страна: Россия
Жанр: Документальное расследование
Продолжительность: 00:26:00
Перевод: Не требуется
Русские субтитры: нет
Режиссер: Юрий Соколов
Описание: Первые лица государства, известные политики, звезды мировой величины… Для их охраны создаются целые ведомства, тысячи людей вычисляют, с какой стороны может появиться угроза, еще тысячи придумывают, как защитить от этой угрозы. Но их все равно уничтожают: выстрел снайпера, нападение фанатика, бомба экстремиста…
Почему, несмотря на системы безопасности, покушения все-таки происходят? Какие ошибки становятся фатальными? Что можно было бы сделать, чтобы преступления не произошло? И как после трагического финала меняется система безопасности для особо важных персон?
Телеканал "Россия 2" начинает свое расследование самых громких убийств в истории. Как преступникам удается добраться до влиятельнейших людей мира и совершить преступления, меняющие ход истории? Ответ - в новом документальном цикле "Покушения".
качество: IPTVRip
формат: AVI
Видео: 704x400 (16:9), 25 fps, XviD ~1800 kbps avg, 0.255 bit/pixel
Аудио: 48 kHz, MPEG Layer 3, 2 ch, ~128.00 kbps avg

MediaInfo

Полное имя : C:\Загрузки\ФИЛЬМЫ\Покушения 2013\Покушения.Франц.Фердинанд.IPTVRip.by_CET.avi
Формат : AVI
Формат/Информация : Audio Video Interleave
Размер файла : 360 Мбайт
Продолжительность : 26 м.
Общий поток : 1929 Кбит/сек
Библиотека кодирования : VirtualDub build 32706/release
Видео
Идентификатор : 0
Формат : MPEG-4 Visual
Профиль формата : Advanced Simple@L5
Параметр BVOP формата : 2
Параметр QPel формата : Нет
Параметр GMC формата : Без точки перехода
Параметр матрицы формата : Default (MPEG)
Идентификатор кодека : XVID
Идентификатор кодека/Подсказка : XviD
Продолжительность : 26 м.
Битрейт : 1791 Кбит/сек
Ширина : 704 пикселя
Высота : 400 пикселей
Соотношение сторон : 16:9
Частота кадров : 25,000 кадров/сек
Цветовое пространство : YUV
Субдискретизация насыщенности : 4:2:0
Битовая глубина : 8 бит
Тип развёртки : Прогрессивная
Метод сжатия : С потерями
Бит/(Пиксели*Кадры) : 0.254
Размер потока : 334 Мбайт (93%)
Библиотека кодирования : XviD 64
Аудио
Идентификатор : 1
Формат : MPEG Audio
Версия формата : Version 1
Профиль формата : Layer 3
Режим : Joint stereo
Расширение режима : MS Stereo
Идентификатор кодека : 55
Идентификатор кодека/Подсказка : MP3
Продолжительность : 26 м.
Вид битрейта : Постоянный
Битрейт : 128 Кбит/сек
Каналы : 2 канала
Частота : 48,0 КГц
Метод сжатия : С потерями
Размер потока : 23,9 Мбайт (7%)
Выравнивание : Разделение по промежуткам
Продолжительность промежутка : 40 мс. (1,00 видеокадр)
Время предзагрузки промежутка : 500 мс.

Скриншоты


_________________
Показать сообщения:    

Текущее время: Сегодня 02:49

Часовой пояс: GMT



Вы не можете начинать темы
Вы не можете отвечать на сообщения
Вы не можете редактировать свои сообщения
Вы не можете удалять свои сообщения
Вы не можете голосовать в опросах
Вы не можете прикреплять файлы к сообщениям
Вы не можете скачивать файлы