Важное объявление!
У Нас Все раздачи мультитрекерные, при нуле пиров в релизах, можете смело вставать на закачку!
 
Автор Сообщение

HUNTER

Стаж:
4 года 10 месяцев
Сообщений:
65576

Репутация: 101

[+] [-]
Вне форума [Профиль] [ЛС]

Покушения. Леонид Брежнев
Год выпуска: 2013
Страна: Россия
Жанр: Документальный
Продолжительность: 00:26:06
Перевод: Не требуется
Режиссер: Юрий Соколов
Описание: После того, как осторожный Сталин годами выстраивал систему охраны первых лиц, долгие года никаких серьезных покушений не было. За безопасность отвечало 9-е отделение КГБ. Но в 1969 году на Красной площади прозвучали выстрелы. Мишенью должен был стать Леонид Брежнев...
Сэмпл: http://multi-up.com/927523
качество: SATRip
Видео: 704x400 (1.83:1), 25 fps, XviD MPEG-4, 1792 kbps avg, 0.27 bit/pixel
Аудио: MP3, 2 ch, 128 Кбит/с, 48 kHz
Релиз MediaClub

MediaInfo

Pokusheniya.Brezhnev.avi
Format : AVI
Format/Info : Audio Video Interleave
File size : 360 MiB
Duration : 26mn 6s
Overall bit rate : 1 929 Kbps
Writing library : VirtualDub build 32507/release
Video #0
ID : 0
Format : MPEG-4 Visual
Format profile : Advanced Simple@L5
Format settings, BVOP : 2
Format settings, QPel : No
Format settings, GMC : No warppoints
Format settings, Matrix : Default (H.263)
Muxing mode : Packed bitstream
Codec ID : XVID
Codec ID/Hint : XviD
Duration : 26mn 6s
Bit rate : 1 791 Kbps
Width : 704 pixels
Height : 400 pixels
Display aspect ratio : 16:9
Frame rate : 25.000 fps
Color space : YUV
Chroma subsampling : 4:2:0
Bit depth : 8 bits
Scan type : Progressive
Compression mode : Lossy
Bits/(Pixel*Frame) : 0.254
Stream size : 335 MiB (93%)
Writing library : XviD 1.1.2 (UTC 2006-11-01)
Audio #1
ID : 1
Format : MPEG Audio
Format version : Version 1
Format profile : Layer 3
Mode : Joint stereo
Mode extension : MS Stereo
Codec ID : 55
Codec ID/Hint : MP3
Duration : 26mn 6s
Bit rate mode : Constant
Bit rate : 128 Kbps
Channel(s) : 2 channels
Sampling rate : 48.0 KHz
Compression mode : Lossy
Stream size : 23.9 MiB (7%)
Alignment : Split accross interleaves
Interleave, duration : 40 ms (1.00 video frame)
Interleave, preload duration : 500 ms

Скриншоты


_________________
Показать сообщения:    

Текущее время: Сегодня 11:06

Часовой пояс: GMT



Вы не можете начинать темы
Вы не можете отвечать на сообщения
Вы не можете редактировать свои сообщения
Вы не можете удалять свои сообщения
Вы не можете голосовать в опросах
Вы не можете прикреплять файлы к сообщениям
Вы не можете скачивать файлы