Важное объявление!
У Нас Все раздачи мультитрекерные, при нуле пиров в релизах, можете смело вставать на закачку!
Статистика раздачи
Размер:     |    Зарегистрирован:     |    Скачан:     |   
Нет
 
     
 
 
Автор Сообщение

димитри37

Стаж:
4 года 5 месяцев
Сообщений:
1236

Репутация: 127

[+] [-]
Вне форума [Профиль] [ЛС]

Покровские ворота
Жанр: комедия
Год выпуска: 1982
Продолжительность: 01:02:38 + 01:08:38
Режиссёр: Михаил Козаков
В ролях:
Олег Меньшиков - Костик (Константин Ромин)
Анатолий Равикович - Лев Евгеньевич Хоботов
Инна Ульянова - Маргарита Павловна Хоботова
Виктор Борцов - Савва Игнатьевич
Леонид Броневой - Аркадий Варламович Велюров
Софья Пилявская - Алиса Витальевна, тётя Костика
Елена Коренева - Людочка
Валентина Воилкова - Рита
Татьяна Догилева - Света
Игорь Дмитриев - Глеб Орлович
Елизавета Никищихина - Нина Орлович
Евгений Моргунов - Соев, поэт
Наталья Крачковская - Ольга Яновна, его жена
Марина Дюжева - Анна Адамовна, студентка
Михаил Козаков - Константин Ромин спустя 25 лет
Леонид Машков - Савранский, друг Костика
Алексей Коняшин - Азиз, дворник
Описание: Двухсерийный художественный фильм, снятый Михаилом Козаковым в 1982 году по одноимённой пьесе Леонида Зорина, лирическая комедия о москвичах 50-х годов, живущих в одной из коммунальных квартир у Покровских Ворот.

Качество видео: DVDRip-AVC
Формат видео: MKV
Видео: x264 (High@L4.1); Анаморф 700@746x572, Display aspect ratio 4:3, 25.000 fps, 2499 Kbps
Аудио: Оригинал AC-3; 16 bit 48 Khz; 6ch 448 Kbps; CBR

Скриншоты

Исходник

MediaInfo

1 серия

General
Unique ID : 245307565448592102700016809644776187104 (0xB88C84C2328A57B4837555C462DF64E0)
Complete name : Покровские ворота.1982.1 серия.mkv
Format : Matroska
Format version : Version 2
File size : 1.29 GiB
Duration : 1h 2mn
Overall bit rate : 2 949 Kbps
Encoded date : UTC 2012-07-20 20:38:24
Writing application : mkvmerge v5.7.0 ('The Whirlwind') built on Jul 8 2012 20:08:51
Writing library : libebml v1.2.3 + libmatroska v1.3.0
Video
ID : 1
Format : AVC
Format/Info : Advanced Video Codec
Format profile : High@L4.1
Format settings, CABAC : Yes
Format settings, ReFrames : 16 frames
Codec ID : V_MPEG4/ISO/AVC
Duration : 1h 2mn
Bit rate : 2 499 Kbps
Width : 700 pixels
Height : 572 pixels
Display aspect ratio : 4:3
Original display aspect ratio : 4:3
Frame rate : 25.000 fps
Color space : YUV
Chroma subsampling : 4:2:0
Bit depth : 8 bits
Scan type : Progressive
Bits/(Pixel*Frame) : 0.250
Stream size : 1.07 GiB (83%)
Title : Покровские ворота.1982.1 серия
Writing library : x264 core 125 r2200 999b753
Encoding settings : cabac=1 / ref=16 / deblock=1:-1:-1 / analyse=0x3:0x133 / me=umh / subme=11 / psy=1 / psy_rd=1.00:0.20 / mixed_ref=1 / me_range=48 / chroma_me=1 / trellis=2 / 8x8dct=1 / cqm=0 / deadzone=21,11 / fast_pskip=0 / chroma_qp_offset=-3 / threads=12 / lookahead_threads=2 / sliced_threads=0 / nr=0 / decimate=0 / interlaced=0 / bluray_compat=0 / constrained_intra=0 / bframes=10 / b_pyramid=2 / b_adapt=2 / b_bias=0 / direct=3 / weightb=1 / open_gop=0 / weightp=2 / keyint=250 / keyint_min=25 / scenecut=40 / intra_refresh=0 / rc_lookahead=60 / rc=2pass / mbtree=1 / bitrate=2499 / ratetol=1.0 / qcomp=0.60 / qpmin=0 / qpmax=69 / qpstep=4 / cplxblur=20.0 / qblur=0.5 / vbv_maxrate=50000 / vbv_bufsize=62500 / nal_hrd=none / ip_ratio=1.40 / aq=1:1.10
Language : Russian
Default : Yes
Forced : No
Color primaries : BT.470-6 System B, BT.470-6 System G, BT.601-6 625, BT.1358 625, BT.1700 625 PAL, BT.1700 625 SECAM
Transfer characteristics : BT.470-6 System B, BT.470-6 System G
Matrix coefficients : BT.470-6 System B, BT.470-6 System G, BT.601-6 625, BT.1358 625, BT.1700 625 PAL, BT.1700 625 SECAM, IEC 61966-2-4 601
Audio
ID : 2
Format : AC-3
Format/Info : Audio Coding 3
Mode extension : CM (complete main)
Codec ID : A_AC3
Duration : 1h 2mn
Bit rate mode : Constant
Bit rate : 448 Kbps
Channel(s) : 6 channels
Channel positions : Front: L C R, Side: L R, LFE
Sampling rate : 48.0 KHz
Bit depth : 16 bits
Compression mode : Lossy
Stream size : 201 MiB (15%)
Title : Оригинал AC-3; 16 bit 48 Khz; 6ch 448 Kbps; CBR
Language : Russian
Default : Yes
Forced : No

2 серия

General
Unique ID : 254705274520541088812205192663211857585 (0xBF9E7396C3F4400A8325F6864E7256B1)
Complete name : Покровские ворота.1982.2 серия.mkv
Format : Matroska
Format version : Version 2
File size : 1.41 GiB
Duration : 1h 8mn
Overall bit rate : 2 949 Kbps
Encoded date : UTC 2012-07-20 17:01:51
Writing application : mkvmerge v5.7.0 ('The Whirlwind') built on Jul 8 2012 20:08:51
Writing library : libebml v1.2.3 + libmatroska v1.3.0
Video
ID : 1
Format : AVC
Format/Info : Advanced Video Codec
Format profile : High@L4.1
Format settings, CABAC : Yes
Format settings, ReFrames : 16 frames
Codec ID : V_MPEG4/ISO/AVC
Duration : 1h 8mn
Bit rate : 2 499 Kbps
Width : 700 pixels
Height : 572 pixels
Display aspect ratio : 4:3
Original display aspect ratio : 4:3
Frame rate : 25.000 fps
Color space : YUV
Chroma subsampling : 4:2:0
Bit depth : 8 bits
Scan type : Progressive
Bits/(Pixel*Frame) : 0.250
Stream size : 1.17 GiB (83%)
Title : Покровские ворота.1982.2 серия
Writing library : x264 core 125 r2200 999b753
Encoding settings : cabac=1 / ref=16 / deblock=1:-1:-1 / analyse=0x3:0x133 / me=umh / subme=11 / psy=1 / psy_rd=1.00:0.20 / mixed_ref=1 / me_range=48 / chroma_me=1 / trellis=2 / 8x8dct=1 / cqm=0 / deadzone=21,11 / fast_pskip=0 / chroma_qp_offset=-3 / threads=12 / lookahead_threads=2 / sliced_threads=0 / nr=0 / decimate=0 / interlaced=0 / bluray_compat=0 / constrained_intra=0 / bframes=10 / b_pyramid=2 / b_adapt=2 / b_bias=0 / direct=3 / weightb=1 / open_gop=0 / weightp=2 / keyint=250 / keyint_min=25 / scenecut=40 / intra_refresh=0 / rc_lookahead=60 / rc=2pass / mbtree=1 / bitrate=2499 / ratetol=1.0 / qcomp=0.60 / qpmin=0 / qpmax=69 / qpstep=4 / cplxblur=20.0 / qblur=0.5 / vbv_maxrate=50000 / vbv_bufsize=62500 / nal_hrd=none / ip_ratio=1.40 / aq=1:1.10
Language : Russian
Default : Yes
Forced : No
Color primaries : BT.470-6 System B, BT.470-6 System G, BT.601-6 625, BT.1358 625, BT.1700 625 PAL, BT.1700 625 SECAM
Transfer characteristics : BT.470-6 System B, BT.470-6 System G
Matrix coefficients : BT.470-6 System B, BT.470-6 System G, BT.601-6 625, BT.1358 625, BT.1700 625 PAL, BT.1700 625 SECAM, IEC 61966-2-4 601
Audio
ID : 2
Format : AC-3
Format/Info : Audio Coding 3
Mode extension : CM (complete main)
Codec ID : A_AC3
Duration : 1h 8mn
Bit rate mode : Constant
Bit rate : 448 Kbps
Channel(s) : 6 channels
Channel positions : Front: L C R, Side: L R, LFE
Sampling rate : 48.0 KHz
Bit depth : 16 bits
Compression mode : Lossy
Stream size : 220 MiB (15%)
Title : Оригинал AC-3; 16 bit 48 Khz; 6ch 448 Kbps; CBR
Language : Russian
Default : Yes
Forced : No

x264 log

1 серия

...last pass...
x264.exe: --pass 2 --bitrate 2499 --preset medium --ref 16 --aq-strength 1.1 --deblock -1:-1 --merange 48 --bframes 10 --direct auto --b-adapt 2 --trellis 2 --no-fast-pskip --no-dct-decimate --psy-rd 1.00:0.20 --vbv-maxrate 50000 --vbv-bufsize 62500 --partitions all --subme 11 --me umh --rc-lookahead 60 --colorprim bt470bg --transfer bt470bg --colormatrix bt470bg --sar 16:15 --stats "K:\Покровские ворота.1982.1 серия.log" --output "K:\Покровские ворота.1982.1 серия.mkv" "L:\Temp\0337.avs"
avs [info]: 700x572p 16:15 @ 25/1 fps (cfr)
x264 [info]: using SAR=16/15
x264 [info]: using cpu capabilities: MMX2 SSE2Fast SSSE3 FastShuffle SSE4.2
x264 [info]: profile High, level 4.1
x264 [info]: frame I:499 Avg QP:21.22 size: 39152
x264 [info]: frame P:20383 Avg QP:22.56 size: 22590
x264 [info]: frame B:73075 Avg QP:24.26 size: 9498
x264 [info]: consecutive B-frames: 1.2% 2.6% 7.7% 25.9% 18.3% 33.1% 6.2% 2.9% 1.6% 0.3% 0.2%
x264 [info]: mb I I16..4: 5.4% 83.8% 10.8%
x264 [info]: mb P I16..4: 1.1% 22.6% 1.6% P16..4: 32.0% 32.3% 6.9% 2.1% 0.1% skip: 1.3%
x264 [info]: mb B I16..4: 0.1% 3.6% 0.1% B16..8: 40.3% 22.3% 2.8% direct:11.2% skip:19.5% L0:41.7% L1:44.6% BI:13.6%
x264 [info]: 8x8 transform intra:90.1% inter:70.3%
x264 [info]: direct mvs spatial:98.6% temporal:1.4%
x264 [info]: coded y,uvDC,uvAC intra: 94.7% 74.7% 27.3% inter: 47.7% 36.7% 4.5%
x264 [info]: i16 v,h,dc,p: 44% 16% 6% 33%
x264 [info]: i8 v,h,dc,ddl,ddr,vr,hd,vl,hu: 10% 8% 4% 9% 14% 14% 14% 13% 14%
x264 [info]: i4 v,h,dc,ddl,ddr,vr,hd,vl,hu: 13% 9% 3% 7% 14% 15% 14% 12% 13%
x264 [info]: i8c dc,h,v,p: 31% 25% 23% 21%
x264 [info]: Weighted P-Frames: Y:23.8% UV:9.2%
x264 [info]: ref P L0: 39.1% 13.5% 16.9% 7.4% 5.1% 3.8% 3.1% 1.9% 1.7% 1.4% 1.3% 1.1% 1.1% 1.0% 0.9% 0.7%
x264 [info]: ref B L0: 78.0% 9.9% 3.7% 2.0% 1.4% 1.2% 0.9% 0.6% 0.5% 0.5% 0.4% 0.4% 0.3% 0.2% 0.1%
x264 [info]: ref B L1: 94.5% 5.5%
x264 [info]: kb/s:2499.13
x264 [total]: encoded 93957 frames, 9.04 fps, 2499.13 kb/s

2 серия

...last pass...
x264.exe: --pass 2 --bitrate 2499 --preset medium --ref 16 --aq-strength 1.1 --deblock -1:-1 --merange 48 --bframes 10 --direct auto --b-adapt 2 --trellis 2 --no-fast-pskip --no-dct-decimate --psy-rd 1.00:0.20 --vbv-maxrate 50000 --vbv-bufsize 62500 --partitions all --subme 11 --me umh --rc-lookahead 60 --colorprim bt470bg --transfer bt470bg --colormatrix bt470bg --sar 16:15 --stats "K:\Покровские ворота.1982.2 серия.log" --output "K:\Покровские ворота.1982.2 серия.mkv" "L:\Temp\0336.avs"
avs [info]: 700x572p 16:15 @ 25/1 fps (cfr)
x264 [info]: using SAR=16/15
x264 [info]: using cpu capabilities: MMX2 SSE2Fast SSSE3 FastShuffle SSE4.2
x264 [info]: profile High, level 4.1
x264 [info]: frame I:569 Avg QP:21.54 size: 44145
x264 [info]: frame P:22348 Avg QP:23.11 size: 23931
x264 [info]: frame B:80034 Avg QP:24.99 size: 9080
x264 [info]: consecutive B-frames: 1.2% 2.6% 8.2% 26.8% 17.6% 29.9% 6.1% 4.0% 2.3% 0.8% 0.4%
x264 [info]: mb I I16..4: 4.2% 84.6% 11.2%
x264 [info]: mb P I16..4: 0.8% 21.2% 1.6% P16..4: 32.0% 33.4% 7.5% 2.4% 0.1% skip: 0.7%
x264 [info]: mb B I16..4: 0.1% 2.7% 0.1% B16..8: 39.7% 22.3% 2.8% direct:11.4% skip:20.8% L0:40.4% L1:44.1% BI:15.5%
x264 [info]: 8x8 transform intra:90.2% inter:70.3%
x264 [info]: direct mvs spatial:98.9% temporal:1.1%
x264 [info]: coded y,uvDC,uvAC intra: 95.5% 78.8% 33.5% inter: 47.5% 36.1% 5.2%
x264 [info]: i16 v,h,dc,p: 55% 13% 5% 26%
x264 [info]: i8 v,h,dc,ddl,ddr,vr,hd,vl,hu: 12% 7% 4% 9% 14% 15% 13% 14% 13%
x264 [info]: i4 v,h,dc,ddl,ddr,vr,hd,vl,hu: 15% 8% 2% 7% 14% 16% 14% 12% 12%
x264 [info]: i8c dc,h,v,p: 31% 24% 24% 21%
x264 [info]: Weighted P-Frames: Y:25.3% UV:10.3%
x264 [info]: ref P L0: 39.9% 15.7% 16.8% 7.0% 4.7% 3.4% 2.8% 1.6% 1.5% 1.3% 1.2% 1.0% 0.9% 0.8% 0.8% 0.6%
x264 [info]: ref B L0: 80.4% 9.3% 3.1% 1.7% 1.2% 1.0% 0.7% 0.5% 0.4% 0.4% 0.3% 0.3% 0.3% 0.2% 0.1%
x264 [info]: ref B L1: 95.2% 4.8%
x264 [info]: kb/s:2499.46
x264 [total]: encoded 102951 frames, 9.06 fps, 2499.46 kb/s

FAQ по просмотру MKV/h.264/AAC

Показать сообщения:    

Текущее время: Сегодня 03:14

Часовой пояс: GMT



Вы не можете начинать темы
Вы не можете отвечать на сообщения
Вы не можете редактировать свои сообщения
Вы не можете удалять свои сообщения
Вы не можете голосовать в опросах
Вы не можете прикреплять файлы к сообщениям
Вы не можете скачивать файлы