Покойся с миром / Убивай и молись / Requiescant (Карло Лидзани / Carlo Lizzani) [1967, Италия, Германия (ФРГ), вестерн, BDRip 720p] VO + Sub Eng + Original Ita :: Ивановский Торрент трекер
Важное объявление!
У Нас Все раздачи мультитрекерные, при нуле пиров в релизах, можете смело вставать на закачку!
Статистика раздачи
Размер:     |    Зарегистрирован:     |    Скачан:     |   
Нет
 
     
 
 
Автор Сообщение

HUNTER

Стаж:
4 года 11 месяцев
Сообщений:
66116

Репутация: 101

[+] [-]
Вне форума [Профиль] [ЛС]

Покойся с миром / Убивай и молись / Requiescant
-Страна: Италия, Германия
Жанр: Вестерн
Год выпуска: 1967
Продолжительность: 01:46:42-Перевод: Любительский (одноголосый закадровый) Urasiko-Cубтитры: английские
Оригинальная аудиодорожка: итальянский-Режиссер: Карло Лидзани / Carlo Lizzani-В ролях: Лу Кастель, Марк Дэймон, Пьер Паоло Пазолини, Барбара Фрэй, Франко Читти, Розана Мартини, Мирелла Маравиди, Нинето Даволи-Описание:
Ребёнка, чудом выжившего после бандитского налёта на деревню, подбирает и принимает в свою семью протестантский пастор. Много лет спустя приёмыш становится одним из лучших стрелков Дикого Запада и узнаёт имя своего отца.-Доп. информация: Русская дорожка синхронизирована не идеально, есть места + ~40-85мс. Другая озвучка неакти прикручивать не стал.-Сэмпл: Скачать-Тип релиза: BDRip 720p
Контейнер: MKV-Видео: 1 280x690 (1.85:1); 8000 Kbps; 23.976 fps;
Аудио 1: Russian; AC3; 48.0 KHz; 2ch; 192 Kbps VO
Аудио 2: Italian; FLAC; 48.0 KHz; 1ch; 667 Kbps
Формат субтитров: softsub (SRT)

MediaInfo

Format : Matroska
Format version : Version 4 / Version 2
File size : 6.61 GiB
Duration : 1h 46mn
Overall bit rate mode : Variable
Overall bit rate : 8 862 Kbps
Encoded date : UTC 2016-06-16 18:04:57
Writing application : mkvmerge v8.3.0 ('Over the Horizon') 64bit
Writing library : libebml v1.3.1 + libmatroska v1.4.2
Attachments : poster.jpg
Video
ID : 1
Format : AVC
Format/Info : Advanced Video Codec
Format profile : High@L4.1
Format settings, CABAC : Yes
Format settings, ReFrames : 9 frames
Codec ID : V_MPEG4/ISO/AVC
Duration : 1h 46mn
Bit rate : 8 000 Kbps
Width : 1 280 pixels
Height : 690 pixels
Display aspect ratio : 1.85:1
Frame rate mode : Constant
Frame rate : 23.976 (24000/1001) fps
Color space : YUV
Chroma subsampling : 4:2:0
Bit depth : 8 bits
Scan type : Progressive
Bits/(Pixel*Frame) : 0.378
Stream size : 5.96 GiB (90%)
Writing library : x264 core 148 r2638 7599210
Encoding settings : cabac=1 / ref=9 / deblock=1:-3:-3 / analyse=0x3:0x133 / me=umh / subme=10 / psy=1 / psy_rd=1.00:0.50 / mixed_ref=1 / me_range=32 / chroma_me=1 / trellis=2 / 8x8dct=1 / cqm=0 / deadzone=21,11 / fast_pskip=0 / chroma_qp_offset=-4 / threads=6 / lookahead_threads=1 / sliced_threads=0 / nr=0 / decimate=0 / interlaced=0 / bluray_compat=0 / constrained_intra=0 / bframes=10 / b_pyramid=2 / b_adapt=2 / b_bias=0 / direct=3 / weightb=1 / open_gop=0 / weightp=2 / keyint=240 / keyint_min=23 / scenecut=40 / intra_refresh=0 / rc_lookahead=60 / rc=2pass / mbtree=0 / bitrate=8000 / ratetol=1.0 / qcomp=0.65 / qpmin=0 / qpmax=69 / qpstep=4 / cplxblur=20.0 / qblur=0.5 / vbv_maxrate=62500 / vbv_bufsize=78125 / nal_hrd=none / filler=0 / ip_ratio=1.40 / pb_ratio=1.30 / aq=1:1.00
Default : Yes
Forced : No
Audio #1
ID : 2
Format : AC-3
Format/Info : Audio Coding 3
Mode extension : CM (complete main)
Format settings, Endianness : Big
Codec ID : A_AC3
Duration : 1h 46mn
Bit rate mode : Constant
Bit rate : 192 Kbps
Channel(s) : 2 channels
Channel positions : Front: L R
Sampling rate : 48.0 KHz
Frame rate : 31.250 fps (1536 spf)
Compression mode : Lossy
Stream size : 147 MiB (2%)
Title : VO Urasiko
Language : Russian
Default : Yes
Forced : No
Audio #2
ID : 3
Format : FLAC
Format/Info : Free Lossless Audio Codec
Codec ID : A_FLAC
Duration : 1h 46mn
Bit rate mode : Variable
Bit rate : 667 Kbps
Channel(s) : 1 channel
Channel positions : Front: C
Sampling rate : 48.0 KHz
Frame rate : 11.719 fps (4096 spf)
Bit depth : 24 bits
Stream size : 509 MiB (8%)
Writing library : libFLAC 1.2.1 (UTC 2007-09-17)
Language : Italian
Default : No
Forced : No
Text
ID : 4
Format : UTF-8
Codec ID : S_TEXT/UTF8
Codec ID/Info : UTF-8 Plain Text
Duration : 1h 44mn
Bit rate : 37 bps
Count of elements : 887
Stream size : 29.0 KiB (0%)
Language : English
Default : No
Forced : No

Скриншоты


_________________
Показать сообщения:    

Текущее время: Сегодня 16:12

Часовой пояс: GMT



Вы не можете начинать темы
Вы не можете отвечать на сообщения
Вы не можете редактировать свои сообщения
Вы не можете удалять свои сообщения
Вы не можете голосовать в опросах
Вы не можете прикреплять файлы к сообщениям
Вы не можете скачивать файлы