Ивановский Торрент трекер
Яндекс.Погода
 

[Цитировать]
HUNTER

Поклонница / Фанатка / Der Fan / Trance / Blood Groupie
Страна: ФРГ
Студия: Barbara Moorse Workshop
Жанр: Триллер ,драма
Год выпуска: 1982
Продолжительность: 01:29:29
Перевод: Одноголосый закадровый den904
Cубтитры: нет
Оригинальная аудиодорожка: немецкий
Режиссер: Экхарт Шмидт / Eckhart Schmidt
В ролях: Дезире Носбух, Бодо Штайгер, Симона Браманн, Хельга Тилль
Описание: Семнадцатилетняя девушка Симона поклоняется своему идолу, поп-певцу по имени Р. Ее комната вся увешана плакатами с изображением Р. Однажды Симона оказывается близко-близко к объекту своего поклонения во время раздачи им автографов. Но когда Симона признается Р в письме в своей любви, певец не отвечает на ее послание. Тогда Симона понимает, что таких, как она у Р очень и очень много. Постепенно Симона придумывает, как доказать зазнавшейся поп-звезде, что она-единственная и неповторимая. Для начала Симона решает проникнуть с офис Р и узнать, не уничтожила ли его секретарша ее письмо. Вскоре Симоне удается добиться внимания Р, и у них происходит ночь любви. Но только одна ночь, после которой Р быстро забывает о Симоне. Певец явно недооценил чувства своей преданной фанатки, тем более, что они вышли из-под ее контроля…
Известная в то время телевизионная ведущая Дезире Носбух согласилась на сцену секса с порно-актером Бодо Штайгером (это его единственный фильм), но когда снимки этой сцены стали использоваться в рекламной компании фильма, Носбух подала в суд, пытаясь воспрепятствовать выходу фильма в прокат. Она поругалась с режиссером Экхартом Шмидтом, проиграла дело в суде, но несколько лет спустя они помирились и стали друзьями. Шмидт большую часть своей карьеры снимал документальные фильмы для телевидения. В 1984 году Дезире Носбух спела дуэтом с известным певцом Фалько песню «Kann es Liebe sein?».
Доп. информация: Русскую звуковую дорожку предоставил den904 за что ему огромное спасибо
При пересборе двд были использованы программы:
PgcDemux - разделение компонентов диска на файлы
Muxman - мультиплексирование и авторинг DVD
VobBlanker - реавторинг DVD

Скрин завершения проекта

Бонусы: Трейлер, биография, галерея, фильмографии, слайдшоу
Сэмпл: https://yadi.sk/i/Vs-OInJNbWYt5
Тип релиза: DVD9 (Custom)
Контейнер: DVD-Video
Видео: PAL 4:3 (720x576) VBR Auto Letterboxed
Аудио: Russian (Dolby AC3, 192 Kbps, 2 ch)
Аудио 2: Deutsch (Dolby AC3, 448 Kbps, 6 ch)
Аудио 3: Deutsch (Dolby AC3, 224 Kbps, 2 ch)
Аудио 4: Deutsch (Dolby AC3, 224 Kbps, 2 ch)

DVDInfo

Title: USB-HDD
Size: 4.77 Gb ( 5 002 572 KBytes ) - DVD-9
Enabled regions: 1, 2, 3, 4, 5, 6, 7, 8
VTS_01 :
Play Length: 00:00:04
Video: PAL 4:3 (720x576) VBR
Audio:
Deutsch (Dolby AC3, 6 ch)
VTS_02 :
Play Length: 00:00:18
Video: PAL 4:3 (720x576) VBR
Audio:
Deutsch (Dolby AC3, 2 ch)
VTS_03 :
Play Length: 00:00:33
Video: PAL 4:3 (720x576) VBR
Audio:
Deutsch (Dolby AC3, 6 ch)
VTS_04 :
Play Length: 00:00:19
Video: PAL 4:3 (720x576) VBR
Audio:
Deutsch (Dolby AC3, 6 ch)
Deutsch (Dolby AC3, 6 ch)
Deutsch (Dolby AC3, 6 ch)
VTS_05 :
Play Length: 01:29:29
Video: PAL 4:3 (720x576) VBR, Auto Letterboxed
Audio:
Russian (Dolby AC3, 2 ch)
Deutsch (Dolby AC3, 6 ch)
Deutsch (Dolby AC3, 2 ch)
Deutsch (Dolby AC3, 2 ch)
VTS_06 :
Play Length: 00:02:16
Video: PAL 16:9 (720x576) VBR, Auto Letterboxed
Audio:
Deutsch (Dolby AC3, 2 ch)
VTS_07 :
Play Length: 00:02:16
Video: PAL 16:9 (720x576) VBR, Auto Letterboxed
Audio:
Deutsch (Dolby AC3, 2 ch)
VTS_08 :
Play Length: 00:00:20
Video: PAL 4:3 (720x576) VBR
VTS_09 :
Play Length: 00:00:40
Video: PAL 4:3 (720x576) VBR
VTS_10 :
Play Length: 00:00:50
Video: PAL 4:3 (720x576) VBR
VTS_11 :
Play Length: 00:04:45
Video: PAL 4:3 (720x576) VBR
VTS_12 :
Play Length: 00:02:55
Video: PAL 4:3 (720x576) VBR
VTS_13 :
Play Length: 00:01:10
Video: PAL 4:3 (720x576) VBR
VTS_14 :
Play Length: 00:01:15
Video: PAL 4:3 (720x576) VBR
VTS_15 :
Play Length: 00:00:20
Video: PAL 4:3 (720x576) VBR
VTS_16 :
Play Length: 00:00:20
Video: PAL 4:3 (720x576) VBR
VTS_17 :
Play Length: 00:01:59
Video: PAL 16:9 (720x576) VBR, Auto Letterboxed
Audio:
Deutsch (Dolby AC3, 6 ch)
VTS_18 :
Play Length: 00:01:03
Video: PAL 16:9 (720x576) VBR, Auto Letterboxed
Audio:
Deutsch (Dolby AC3, 2 ch)
VTS_19 :
Play Length: 00:01:24
Video: PAL 16:9 (720x576) VBR, Auto Letterboxed
Audio:
Deutsch (Dolby AC3, 2 ch)
VTS_20 :
Play Length: 00:02:19
Video: PAL 16:9 (720x576) VBR, Auto Letterboxed
Audio:
English (Dolby AC3, 2 ch)
VTS_21 :
Play Length: 00:00:15
Video: PAL 4:3 (720x576) VBR
VTS_22 :
Play Length: 00:00:15
Video: PAL 4:3 (720x576) VBR
Menu Video:
PAL 4:3 (720x576) VBR
Menu English Language Unit :
Root Menu

MediaInfo

General
Полное имя : K:\DVD\Fan, Der_1982\VIDEO_TS\VTS_05_1.VOB
Формат : MPEG-PS
Размер файла : 1 024 MiB
Продолжительность : 23mn 11s
Общий поток : 6 175 Kbps
Video
Идентификатор : 224 (0xE0)
Формат : MPEG Video
Версия формата : Version 2
Профайл формата : Main@Main
Параметры BVOP формата : Yes
Параметры матрицы формата : Default
Format_Settings_GOP : M=3, N=12
Продолжительность : 23mn 11s
Вид битрейта : Variable
Битрейт : 4 842 Kbps
Номинальный битрейт : 8 000 Kbps
Ширина : 720 pixels
Высота : 576 pixels
Соотношение кадра : 4:3
Частота кадров : 25.000 fps
Стандарт вещания : PAL
Разрешение : 8 bits
Колориметрия : 4:2:0
Тип развёртки : Interlaced
Порядок развёртки : Top Field First
Бит/(Пиксели*Кадры) : 0.467
Размер потока : 803 MiB (78%)
Audio #1
Идентификатор : 128 (0x80)
Формат : AC-3
Формат/Информация : Audio Coding 3
Продолжительность : 23mn 10s
Вид битрейта : Constant
Битрейт : 192 Kbps
Канал(ы) : 2 channels
Расположение каналов : Front: L R
Частота : 48.0 KHz
Задержка видео : -80ms
Размер потока : 31.8 MiB (3%)
Audio #2
Идентификатор : 129 (0x81)
Формат : AC-3
Формат/Информация : Audio Coding 3
Продолжительность : 23mn 10s
Вид битрейта : Constant
Битрейт : 448 Kbps
Канал(ы) : 6 channels
Расположение каналов : Front: L C R, Side: L R, LFE
Частота : 48.0 KHz
Задержка видео : -80ms
Размер потока : 74.3 MiB (7%)
Audio #3
Идентификатор : 130 (0x82)
Формат : AC-3
Формат/Информация : Audio Coding 3
Профайл формата : Dolby Digital
Продолжительность : 23mn 10s
Вид битрейта : Constant
Битрейт : 224 Kbps
Канал(ы) : 2 channels
Расположение каналов : Front: L R
Частота : 48.0 KHz
Задержка видео : -80ms
Размер потока : 37.1 MiB (4%)
Audio #4
Идентификатор : 131 (0x83)
Формат : AC-3
Формат/Информация : Audio Coding 3
Продолжительность : 23mn 10s
Вид битрейта : Constant
Битрейт : 224 Kbps
Канал(ы) : 2 channels
Расположение каналов : Front: L R
Частота : 48.0 KHz
Задержка видео : -80ms
Размер потока : 37.1 MiB (4%)
Menu

Скриншоты меню

Показать сообщения:    

Текущее время: 17-Окт 14:18

Часовой пояс: UTC - 1


Вы не можете начинать темы
Вы не можете отвечать на сообщения
Вы не можете редактировать свои сообщения
Вы не можете удалять свои сообщения
Вы не можете голосовать в опросах
Вы не можете прикреплять файлы к сообщениям
Вы не можете скачивать файлы

!ВНИМАНИЕ!
Сайт не предоставляет электронные версии произведений, а занимается лишь коллекционированием и каталогизацией ссылок, присылаемых и публикуемых на форуме нашими читателями. Если вы являетесь правообладателем какого-либо представленного материала и не желаете, чтобы ссылка на него находилась в нашем каталоге, свяжитесь с нами, и мы незамедлительно удалим ее. Файлы для обмена на трекере предоставлены пользователями сайта, и администрация не несет ответственности за их содержание. Просьба не заливать файлы, защищенные авторскими правами, а также файлы нелегального содержания!