Важное объявление!
У Нас Все раздачи мультитрекерные, при нуле пиров в релизах, можете смело вставать на закачку!
 
Автор Сообщение

HUNTER

Стаж:
4 года 10 месяцев
Сообщений:
65531

Репутация: 101

[+] [-]
Вне форума [Профиль] [ЛС]

Покахонтас 2: Путешествие в Новый Свет / Pocahontas II: Journey to a New World
«The All-New Movie»
Страна: США
Жанр: мультфильм
Год выпуска: 1998
Продолжительность: 01:13:09
Перевод: Авторский (одноголосый закадровый) Сергей Визгунов
Cубтитры: английские
Оригинальная аудиодорожка: нет
Режиссер: Том Эллери / Tom Ellery,, Брэдли Рэймонд / Bradley Raymond
В ролях: Ирен Бедард, Джим Каммингс, Донал Гибсон, Финола Хьюз, Линда Хант, Рассел Минс, Дэвид Огден Стайерз, Джин Степлтон, Билли Зейн, Джефф Беннетт
Описание: Когда новость о смерти Джона Смита достигает Америки, дочь индейского вождя Покахонтас, вместе со своим другом, енотом Мико, отправляется в трудный путь в Лондон чтобы установить мир между двумя великими землями. Однако, правитель Рэтклифф неподалеку, он пытается захватить Джеймстаун и цена для него не имеет значения, ничто не остановит его в желании оклеветать принцессу…
Доп. информация: Дорожка с С. Визгуновым синхронизирована и наложена ale_x2008 при помощи Sony Vegas и VirtualDubMod.
За оцифрованную с VHS дорожку благодарим - alenavova

Релиз
Сэмпл: https://yadi.sk/i/kfNiYbVQwqPMf
Качество видео: BDRip
Формат видео: AVI
Видео: XviD build 65, 704x400 (1.76:1), 25.00 fps, 1930 kbps avg, 0.29 bit/pixel
Аудио: AC3 Dolby Digital, 48000Hz, 2/0 (mono) ch, 192.00 kbps avg [AVO]
Аудио 2: 48 kHz, AC3 Dolby Digital, 3/2 (L,C,R,l,r) + LFE ch, ~448 kbps Eng

MediaInfo

Покахонтас 2 - Путешествие в Новый Свет - Pocahontas II - Journey to a New World (by ale_x2008).avi
Format : AVI
Format/Info : Audio Video Interleave
File size : 1.32 GiB
Duration : 1 h 13 min
Overall bit rate : 2 585 kb/s
Movie name : Pokahontas.2.Puteshestvie.V.Novyj.Mir.1998.DUAL.BDRip.XviD.AC3.-HELLYWOOD
Director : by ale_x2008
Writing application : VirtualDubMod 1.5.10.3 (build 2550/release)
Copyright : Edich2
Comment : RuTracker.org
Video
ID : 0
Format : MPEG-4 Visual
Format profile : Advanced Simple@L5
Format settings, BVOP : 2
Format settings, QPel : No
Format settings, GMC : No warppoints
Format settings, Matrix : Custom
Codec ID : XVID
Codec ID/Hint : XviD
Duration : 1 h 13 min
Bit rate : 1 931 kb/s
Width : 704 pixels
Height : 400 pixels
Display aspect ratio : 16:9
Frame rate : 23.976 (23976/1000) FPS
Color space : YUV
Chroma subsampling : 4:2:0
Bit depth : 8 bits
Scan type : Progressive
Compression mode : Lossy
Bits/(Pixel*Frame) : 0.286
Stream size : 1 010 MiB (75%)
Writing library : XviD 65
Audio #1
ID : 1
Format : AC-3
Format/Info : Audio Coding 3
Mode extension : CM (complete main)
Format settings, Endianness : Big
Codec ID : 2000
Duration : 1 h 13 min
Bit rate mode : Constant
Bit rate : 192 kb/s
Channel(s) : 2 channels
Channel positions : Front: L R
Sampling rate : 48.0 kHz
Frame rate : 31.250 FPS (1536 spf)
Compression mode : Lossy
Stream size : 100 MiB (7%)
Alignment : Split accross interleaves
Interleave, duration : 42 ms (1.00 video frame)
Interleave, preload duratio : 500 ms
Audio #2
ID : 2
Format : AC-3
Format/Info : Audio Coding 3
Mode extension : CM (complete main)
Format settings, Endianness : Big
Codec ID : 2000
Duration : 1 h 13 min
Bit rate mode : Constant
Bit rate : 448 kb/s
Channel(s) : 6 channels
Channel positions : Front: L C R, Side: L R, LFE
Sampling rate : 48.0 kHz
Frame rate : 31.250 FPS (1536 spf)
Compression mode : Lossy
Stream size : 234 MiB (17%)
Alignment : Split accross interleaves
Interleave, duration : 42 ms (1.00 video frame)
Interleave, preload duratio : 500 ms

Скриншоты



_________________
Показать сообщения:    

Текущее время: Сегодня 03:41

Часовой пояс: GMT



Вы не можете начинать темы
Вы не можете отвечать на сообщения
Вы не можете редактировать свои сообщения
Вы не можете удалять свои сообщения
Вы не можете голосовать в опросах
Вы не можете прикреплять файлы к сообщениям
Вы не можете скачивать файлы