Важное объявление!
У Нас Все раздачи мультитрекерные, при нуле пиров в релизах, можете смело вставать на закачку!
Статистика раздачи
Размер:     |    Зарегистрирован:     |    Скачан:     |   
Нет
 
     
 
 
Автор Сообщение

HUNTER

Стаж:
5 лет
Сообщений:
68004

Репутация: 101

[+] [-]
Вне форума [Профиль] [ЛС]

-Поймай толстуху, если сможешь / Identity Thief-«Is this the face of a thief?»
-Страна: США
Студия: Aggregate Films, DumbDumb, Stuber Productions
Жанр: комедия, криминал
Год выпуска: 2013
Мировая премьера: 7 февраля 2013
Российская премьера: 21 марта 2013, «UPI»
Дата выхода DVD: 11 июля 2013, «Двадцатый Век Фокс СНГ»
Дата выхода Blu-Ray: 11 июля 2013, «Двадцатый Век Фокс СНГ»
Продолжительность: 01:46:48
Перевод: Профессиональный (дублированный) [Лицензия]
Cубтитры: русские, английские, немецкие, турецкие, болгарские, греческие, эстонские, латышские, литовские
Оригинальная аудиодорожка: английский-Режиссер: Сет Гордон / Seth Gordon-В ролях: Джейсон Бейтман, Мелисса МакКарти, Джон Фавро, Аманда Пит, Ти-Ай, Дженезис Родригез, Моррис Честнат, Джон Чо, Роберт Патрик, Эрик Стоунстрит-Описание: Главный герой фильма — молодой человек по имени Сэнди, являющийся добропорядочным гражданином, однажды узнает, что кто-то умудрился воспользоваться его именем и кредитной картой. Каково же было его удивление, когда злоумышленником оказалась представительница прекрасного пола. Сэнди был в полном недоумении, но решил найти эту наглую женщину и поговорить с ней. Но она совершенно не жалеет о содеянном преступлении и не станет сдаваться без боя!-Бонусы: нет- -Релиз группы: -Качество: DVD9 R5
Формат: DVD-Video
Видео кодек: MPEG2
Аудио кодек: AC3
Видео: PAL 16:9 (720x576(0.737)) MPEG Video, 25,000 кадр/сек, 7637 Кбит/сек
Аудио #1: English (Dolby AC3, 6 ch) 384 Кбит/сек, 48,0 КГц
Аудио #2: Deutsch (Dolby AC3, 6 ch) 384 Кбит/сек, 48,0 КГц
Аудио #3: Russian (Dolby AC3, 6 ch) 384 Кбит/сек, 48,0 КГц
Аудио #4: Turkish (Dolby AC3, 6 ch) 384 Кбит/сек, 48,0 КГц--

DVDInfo

Title: Рабочий
Size: 7.17 Gb ( 7 518 412 KBytes ) - DVD-9
Enabled regions: 1, 2, 3, 4, 5, 6, 7, 8
VTS_01 :
Play Length:
Video: PAL 16:9 (720x576) VBR, Auto Pan&Scan
VTS_02 :
Play Length: 00:00:25
Video: PAL 16:9 (720x576) VBR, Auto Pan&Scan
Audio:
English (Dolby AC3, 6 ch)
VTS_03 :
Play Length: 00:00:14
Video: PAL 16:9 (720x576) VBR, Auto Pan&Scan
Audio:
English (Dolby AC3, 6 ch)
VTS_04 :
Play Length: 00:01:38+00:01:45+00:02:10
Video: PAL 16:9 (720x576) VBR, Auto Pan&Scan
Audio:
English (Dolby AC3, 2 ch)
Subtitles:
English
Deutsch
Russian
Turkish
Bulgarian
Greek
VTS_05 :
Play Length: 00:00:08
Video: PAL 16:9 (720x576) VBR, Auto Pan&Scan
Audio:
English (Dolby AC3, 2 ch)
VTS_06 :
Play Length: 00:00:08
Video: PAL 16:9 (720x576) VBR, Auto Pan&Scan
Audio:
English (Dolby AC3, 2 ch)
VTS_07 :
Play Length: 01:46:48
Video: PAL 16:9 (720x576) VBR, Auto Pan&Scan
Audio:
English (Dolby AC3, 6 ch)
Deutsch (Dolby AC3, 6 ch)
Russian (Dolby AC3, 6 ch)
Turkish (Dolby AC3, 6 ch)
Subtitles:
English
Deutsch
Russian
Turkish
Bulgarian
Greek
Estonian
Latvian
Lithuanian
Deutsch
Russian
Turkish
Menu Video:
PAL 16:9 (720x576) VBR
Auto Letterboxed
Menu Subtitles:
Not specified
Menu English Language Unit :
Root Menu
Subpicture Menu
Audio Menu
Angle menu
Chapter (PTT) Menu

MediaInfo

Общее
Полное имя : F:\Новинки 2014\Pojmaj.tolstuhu.esli.smozhesh.2013.DVD9\VIDEO_TS\VTS_07_1.VOB
Формат : MPEG-PS
Размер файла : 1024 Мбайт
Продолжительность : 15 м.
Режим общего битрейта : Переменный
Общий поток : 9359 Кбит/сек
Видео
Идентификатор : 224 (0xE0)
Формат : MPEG Video
Версия формата : Version 2
Профиль формата : Main@Main
Параметр BVOP формата : Да
Параметр матрицы формата : Выборочная
Параметр GOP формата : Variable
Format_Settings_PictureStructure : Frame
Продолжительность : 15 м.
Вид битрейта : Переменный
Битрейт : 7637 Кбит/сек
Максимальный битрейт : 9800 Кбит/сек
Ширина : 720 пикселей
Высота : 576 пикселей
Соотношение сторон : 16:9
Частота кадров : 25,000 кадров/сек
Стандарт вещания : PAL
Цветовое пространство : YUV
Субдискретизация насыщенности : 4:2:0
Битовая глубина : 8 бит
Тип развёртки : Чересстрочная
Порядок развёртки : Верхнее поле первое
Метод сжатия : С потерями
Бит/(Пиксели*Кадры) : 0.737
Временной код первого кадра : 00:59:59:00
Оригинал временного кода : Group of pictures header
Размер потока : 836 Мбайт (82%)
Аудио #1
Идентификатор : 189 (0xBD)-128 (0x80)
Формат : AC-3
Формат/Информация : Audio Coding 3
Расширение режима : CM (complete main)
Параметр Endianness формата : Big
Режим смешивания : DVD-Video
Продолжительность : 15 м.
Вид битрейта : Постоянный
Битрейт : 384 Кбит/сек
Каналы : 6 каналов
Расположение каналов : Front: L C R, Side: L R, LFE
Частота : 48,0 КГц
Битовая глубина : 16 бит
Метод сжатия : С потерями
Размер потока : 42,0 Мбайт (4%)
Аудио #2
Идентификатор : 189 (0xBD)-129 (0x81)
Формат : AC-3
Формат/Информация : Audio Coding 3
Расширение режима : CM (complete main)
Параметр Endianness формата : Big
Режим смешивания : DVD-Video
Продолжительность : 15 м.
Вид битрейта : Постоянный
Битрейт : 384 Кбит/сек
Каналы : 6 каналов
Расположение каналов : Front: L C R, Side: L R, LFE
Частота : 48,0 КГц
Битовая глубина : 16 бит
Метод сжатия : С потерями
Размер потока : 42,0 Мбайт (4%)
Аудио #3
Идентификатор : 189 (0xBD)-130 (0x82)
Формат : AC-3
Формат/Информация : Audio Coding 3
Расширение режима : CM (complete main)
Параметр Endianness формата : Big
Режим смешивания : DVD-Video
Продолжительность : 15 м.
Вид битрейта : Постоянный
Битрейт : 384 Кбит/сек
Каналы : 6 каналов
Расположение каналов : Front: L C R, Side: L R, LFE
Частота : 48,0 КГц
Битовая глубина : 16 бит
Метод сжатия : С потерями
Размер потока : 42,0 Мбайт (4%)
Аудио #4
Идентификатор : 189 (0xBD)-131 (0x83)
Формат : AC-3
Формат/Информация : Audio Coding 3
Расширение режима : CM (complete main)
Параметр Endianness формата : Big
Режим смешивания : DVD-Video
Продолжительность : 15 м.
Вид битрейта : Постоянный
Битрейт : 384 Кбит/сек
Каналы : 6 каналов
Расположение каналов : Front: L C R, Side: L R, LFE
Частота : 48,0 КГц
Битовая глубина : 16 бит
Метод сжатия : С потерями
Размер потока : 42,0 Мбайт (4%)
Текст #1
Идентификатор : 189 (0xBD)-32 (0x20)
Формат : RLE
Формат/Информация : Run-length encoding
Режим смешивания : DVD-Video
Текст #2
Идентификатор : 189 (0xBD)-33 (0x21)
Формат : RLE
Формат/Информация : Run-length encoding
Режим смешивания : DVD-Video
Текст #3
Идентификатор : 189 (0xBD)-34 (0x22)
Формат : RLE
Формат/Информация : Run-length encoding
Режим смешивания : DVD-Video
Текст #4
Идентификатор : 189 (0xBD)-35 (0x23)
Формат : RLE
Формат/Информация : Run-length encoding
Режим смешивания : DVD-Video
Текст #5
Идентификатор : 189 (0xBD)-36 (0x24)
Формат : RLE
Формат/Информация : Run-length encoding
Режим смешивания : DVD-Video
Текст #6
Идентификатор : 189 (0xBD)-37 (0x25)
Формат : RLE
Формат/Информация : Run-length encoding
Режим смешивания : DVD-Video
Текст #7
Идентификатор : 189 (0xBD)-38 (0x26)
Формат : RLE
Формат/Информация : Run-length encoding
Режим смешивания : DVD-Video
Текст #8
Идентификатор : 189 (0xBD)-39 (0x27)
Формат : RLE
Формат/Информация : Run-length encoding
Режим смешивания : DVD-Video
Текст #9
Идентификатор : 189 (0xBD)-40 (0x28)
Формат : RLE
Формат/Информация : Run-length encoding
Режим смешивания : DVD-Video

Скриншоты меню

Скриншоты фильма


-
-Раздача от группы:

_________________
Показать сообщения:    

Текущее время: Сегодня 08:40

Часовой пояс: GMT



Вы не можете начинать темы
Вы не можете отвечать на сообщения
Вы не можете редактировать свои сообщения
Вы не можете удалять свои сообщения
Вы не можете голосовать в опросах
Вы не можете прикреплять файлы к сообщениям
Вы не можете скачивать файлы