Ивановский Торрент трекер
Яндекс.Погода
 

[Цитировать]
HUNTER

Поймай толстуху, если сможешь / Identity Thief - Год выпуска: 2013
Страна: США
Жанр: комедия, криминал
Продолжительность: 01:51:28
Перевод: Дублированный [Лицензия]
Субтитры: русские (forced, full),английские -В ролях: Джейсон Бейтман, Мелисса МакКарти, Аманда Пит, Роберт Патрик, Генезис Родригез, Ти-Ай, Джон Фавро, Моррис Честнат, Джон Чо, Эрик Стоунстрит
Режиссёр: Сет Гордон - -Клерк лишается своей «юридической» личности, потеряв вместе с документами и смысл дальнейшего существования в городе. Но злоумышленники не дремлют, они обнаружили и кредитные карточки, и наличность, и воспользовались паспортом, а нашему герою то и дело приходят счета о том, где он якобы побывал. Отели, дорогие рестораны, покупки… Но самое интересное, что чаще всего он приобретает одежду огромных женских размеров! После того, как бухгалтер из Денвера получает очередной счет о том, что он ел на завтрак лобстеров, он становится более решительным в своих действиях и отправляется на поиски вора. Его удивлению нету предела, когда воришкой размера ХХХL оказывается очень привлекательная женщина…-Качество: BDRip 720p
Формат: MKV
Видео кодек: AVC
Аудио кодек: AC-3
Видео: AVC, 1280x544, 4709 Кбит/сек, 23.976 кадр/сек
Аудио 1: AC-3, 640 Кбит/сек, 6 канала(ов), 48,0 КГц (Russian)
Аудио 2: AC-3, 640 Кбит/сек, 6 канала(ов), 48,0 КГц (English)
Автор рипа: Fr1sk-

Рейтинг:

Рейтинг:

MediaInfo:

General
Unique ID : 235742956187523599075760949628151877523 (0xB15A711D14C1561CB6963FAE0BA14F93)
Complete name : C:\Users\Fr1sk\Desktop\Рипы\Identity Thief.2013.[Fr1sk]ttt44555.mkv
Format : Matroska
Format version : Version 1
File size : 4.66 GiB
Duration : 1h 51mn
Overall bit rate : 5 990 Kbps
Encoded date : UTC 2013-11-24 13:54:16
Writing application : mkvmerge v2.2.0 ('Turn It On Again') built on Mar 4 2008 13:20:25
Writing library : libebml v0.7.7 + libmatroska v0.8.1
Video
ID : 1
Format : AVC
Format/Info : Advanced Video Codec
Format profile : High@L4.1
Format settings, CABAC : Yes
Format settings, ReFrames : 5 frames
Codec ID : V_MPEG4/ISO/AVC
Duration : 1h 51mn
Bit rate : 4 709 Kbps
Width : 1 280 pixels
Height : 544 pixels
Display aspect ratio : 2.35:1
Frame rate mode : Constant
Frame rate : 23.976 fps
Color space : YUV
Chroma subsampling : 4:2:0
Bit depth : 8 bits
Scan type : Progressive
Bits/(Pixel*Frame) : 0.282
Stream size : 3.57 GiB (77%)
Writing library : x264 core 130 r2273 b3065e6
Encoding settings : cabac=1 / ref=5 / deblock=1:-3:-3 / analyse=0x3:0x133 / me=umh / subme=9 / psy=1 / psy_rd=1.00:0.10 / mixed_ref=1 / me_range=32 / chroma_me=1 / trellis=2 / 8x8dct=1 / cqm=0 / deadzone=21,11 / fast_pskip=0 / chroma_qp_offset=-3 / threads=6 / lookahead_threads=1 / sliced_threads=0 / nr=0 / decimate=1 / interlaced=0 / bluray_compat=0 / constrained_intra=0 / bframes=4 / b_pyramid=2 / b_adapt=2 / b_bias=0 / direct=3 / weightb=1 / open_gop=0 / weightp=2 / keyint=250 / keyint_min=23 / scenecut=40 / intra_refresh=0 / rc_lookahead=50 / rc=2pass / mbtree=1 / bitrate=4709 / ratetol=1.0 / qcomp=0.60 / qpmin=0 / qpmax=69 / qpstep=4 / cplxblur=20.0 / qblur=0.5 / ip_ratio=1.40 / aq=1:1.00
Language : English
Default : Yes
Forced : No
Audio #1
ID : 2
Format : AC-3
Format/Info : Audio Coding 3
Mode extension : CM (complete main)
Format settings, Endianness : Big
Codec ID : A_AC3
Duration : 1h 51mn
Bit rate mode : Constant
Bit rate : 640 Kbps
Channel(s) : 6 channels
Channel positions : Front: L C R, Side: L R, LFE
Sampling rate : 48.0 KHz
Bit depth : 16 bits
Compression mode : Lossy
Stream size : 510 MiB (11%)
Language : Russian
Default : Yes
Forced : No
Audio #2
ID : 3
Format : AC-3
Format/Info : Audio Coding 3
Mode extension : CM (complete main)
Format settings, Endianness : Big
Codec ID : A_AC3
Duration : 1h 51mn
Bit rate mode : Constant
Bit rate : 640 Kbps
Channel(s) : 6 channels
Channel positions : Front: L C R, Side: L R, LFE
Sampling rate : 48.0 KHz
Bit depth : 16 bits
Compression mode : Lossy
Stream size : 510 MiB (11%)
Language : English
Default : No
Forced : No
Text #1
ID : 4
Format : UTF-8
Codec ID : S_TEXT/UTF8
Codec ID/Info : UTF-8 Plain Text
Title : forced
Language : Russian
Default : Yes
Forced : No
Text #2
ID : 5
Format : UTF-8
Codec ID : S_TEXT/UTF8
Codec ID/Info : UTF-8 Plain Text
Title : full
Language : Russian
Default : No
Forced : No
Text #3
ID : 6
Format : UTF-8
Codec ID : S_TEXT/UTF8
Codec ID/Info : UTF-8 Plain Text
Title : SDH
Language : English
Default : No
Forced : No
Menu
00:00:00.000 : :Chapter 01
00:06:30.973 : :Chapter 02
00:11:12.672 : :Chapter 03
00:15:40.648 : :Chapter 04
00:24:00.188 : :Chapter 05
00:27:59.469 : :Chapter 06
00:34:22.685 : :Chapter 07
00:40:19.917 : :Chapter 08
00:44:22.534 : :Chapter 09
00:49:59.413 : :Chapter 10
00:54:34.813 : :Chapter 11
01:01:07.455 : :Chapter 12
01:05:34.013 : :Chapter 13
01:09:20.114 : :Chapter 14
01:14:46.773 : :Chapter 15
01:21:15.412 : :Chapter 16
01:28:15.999 : :Chapter 17
01:34:34.585 : :Chapter 18
01:40:49.835 : :Chapter 19
01:47:19.015 : :Chapter 20

Скриншоты:

Показать сообщения:    

Текущее время: 22-Окт 10:42

Часовой пояс: UTC - 1


Вы не можете начинать темы
Вы не можете отвечать на сообщения
Вы не можете редактировать свои сообщения
Вы не можете удалять свои сообщения
Вы не можете голосовать в опросах
Вы не можете прикреплять файлы к сообщениям
Вы не можете скачивать файлы

!ВНИМАНИЕ!
Сайт не предоставляет электронные версии произведений, а занимается лишь коллекционированием и каталогизацией ссылок, присылаемых и публикуемых на форуме нашими читателями. Если вы являетесь правообладателем какого-либо представленного материала и не желаете, чтобы ссылка на него находилась в нашем каталоге, свяжитесь с нами, и мы незамедлительно удалим ее. Файлы для обмена на трекере предоставлены пользователями сайта, и администрация не несет ответственности за их содержание. Просьба не заливать файлы, защищенные авторскими правами, а также файлы нелегального содержания!