Важное объявление!
У Нас Все раздачи мультитрекерные, при нуле пиров в релизах, можете смело вставать на закачку!
 
Автор Сообщение

HUNTER

Стаж:
4 года 8 месяцев
Сообщений:
62060

Репутация: 101

[+] [-]
Вне форума [Профиль] [ЛС]

Поиск / The Search
Страна: Франция, Грузия
Жанр: драма
Год выпуска: 2014
Продолжительность: 02:14:35
Перевод 1: Авторский (одноголосый закадровый) Юрий Живов
Перевод 2: Субтитры Juris
Cубтитры: русские, английские, французские
Оригинальная аудиодорожка: французский
Режиссер: Мишель Хазанавичус / Michel Hazanavicius
В ролях: Беренис Бежо, Аннетт Бенинг, Максим Емельянов, Абдул Халим Мамуциев, Зухра Дуишвили, Лела Багакашвили, Юрий Цурило, Антон Долгов
Описание: Ремейк одноименного фильма Ф. Зиннеманна.
Переплетение двух судеб - русского парня, у которого милиция обнаружила наркотики и отправила в военкомат, откуда он пошёл воевать на Вторую чеченскую войну, и чеченского мальчика, потерявшего в войне родных. Сотрудница гуманитарного центра (Беренис Бежо) подружилась с мальчиком и хочет забрать ребенка с собой, чтобы увезти его из раздираемого войной региона. Но мальчика ищет его мать, которая полна решимости вернуть сына любой ценой...
1 win & 2 nominations
Доп. информация: К BDRip 720p, скачанному с забугорного трекера, добавлена русская звуковая дорожка и субтитры с [url=viewtopic.php?t=5276731]этой[/url] раздачи, спасибо ylnian.
Сохранены главы исходного blu-ray.
В фильме изобилие мата действующих лиц, изъясняющихся на великом и могучем.
Сэмпл: http://multi-up.com/1118025
Тип релиза: BDRip 720p
Контейнер: MKV
Видео: AVC, 9646 kbps, 1280 x 692, 24,000 fps
Аудио 1: Russian (Dolby AC3, 6 ch), 48 kHz, 448 kbps
Аудио 2: French (Dolby AC3, 6 ch), 48 kHz, 640 kbps
Формат субтитров: UTF-8, PGS

MediaInfo

Matroska
Версия формата : Version 2
Размер файла : 10,3 Гбайт
Продолжительность : 2 ч. 14 м.
Общий поток : 11,0 Мбит/сек
Дата кодирования : UTC 2016-09-13 16:57:52
Программа кодирования : mkvmerge v7.5.0 ('Glass Culture') 32bit built on Jan 4 2015 16:37:25
Библиотека кодирования : libebml v1.3.1 + libmatroska v1.4.2
DURATION : 02:09:24.457000000
NUMBER_OF_FRAMES : 1290
NUMBER_OF_BYTES : 58635
_STATISTICS_WRITING_APP : mkvmerge v7.5.0 ('Glass Culture') 32bit built on Jan 4 2015 16:37:25
_STATISTICS_WRITING_DATE_UTC : 2016-09-13 16:57:52
_STATISTICS_TAGS : BPS DURATION NUMBER_OF_FRAMES NUMBER_OF_BYTES
Видео
Идентификатор : 1
Формат : AVC
Формат/Информация : Advanced Video Codec
Профиль формата : High@L4.1
Параметр CABAC формата : Да
Параметр ReFrames формата : 9 кадров
Идентификатор кодека : V_MPEG4/ISO/AVC
Продолжительность : 2 ч. 14 м.
Битрейт : 9646 Кбит/сек
Ширина : 1280 пикселей
Высота : 692 пикселя
Соотношение сторон : 1,85:1
Режим частоты кадров : Постоянный
Частота кадров : 24,000 кадра/сек
Цветовое пространство : YUV
Субдискретизация насыщенности : 4:2:0
Битовая глубина : 8 бит
Тип развёртки : Прогрессивная
Бит/(Пиксели*Кадры) : 0.454
Размер потока : 9,07 Гбайт (88%)
Заголовок : The Search (2014)
Библиотека кодирования : x264 core 148 r2579kMod 73ae2d1
Настройки программы : cabac=1 / ref=9 / deblock=1:-3:-3 / analyse=0x3:0x133 / me=umh / subme=10 / psy=1 / fade_compensate=0.00 / psy_rd=0.95:0.00 / mixed_ref=1 / me_range=64 / chroma_me=1 / trellis=2 / 8x8dct=1 / cqm=0 / deadzone=21,11 / fast_pskip=0 / chroma_qp_offset=-2 / threads=12 / lookahead_threads=3 / sliced_threads=0 / nr=0 / decimate=0 / interlaced=0 / bluray_compat=0 / constrained_intra=0 / fgo=0 / bframes=11 / b_pyramid=2 / b_adapt=2 / b_bias=0 / direct=3 / weightb=1 / open_gop=0 / weightp=2 / keyint=250 / keyint_min=24 / scenecut=40 / intra_refresh=0 / rc_lookahead=40 / rc=crf / mbtree=0 / crf=17.4000 / qcomp=0.65 / qpmin=0 / qpmax=69 / qpstep=4 / vbv_maxrate=50000 / vbv_bufsize=62500 / crf_max=0.0 / nal_hrd=none / filler=0 / ip_ratio=1.10 / pb_ratio=1.10 / aq=1:0.60
Язык : Russian
Default : Да
Forced : Нет
Основные цвета : BT.709
Характеристики трансфера : BT.709
Коэффициенты матрицы : BT.709
colour_range : Limited
DURATION : 02:14:32.167000000
NUMBER_OF_FRAMES : 193732
NUMBER_OF_BYTES : 9941960435
_STATISTICS_WRITING_APP : mkvmerge v7.5.0 ('Glass Culture') 32bit built on Jan 4 2015 16:37:25
_STATISTICS_WRITING_DATE_UTC : 2016-09-13 16:57:52
_STATISTICS_TAGS : BPS DURATION NUMBER_OF_FRAMES NUMBER_OF_BYTES
Аудио #1
Идентификатор : 2
Формат : AC-3
Формат/Информация : Audio Coding 3
Расширение режима : CM (complete main)
Параметр Endianness формата : Big
Идентификатор кодека : A_AC3
Продолжительность : 2 ч. 14 м.
Вид битрейта : Постоянный
Битрейт : 448 Кбит/сек
Каналы : 6 каналов
Расположение каналов : Front: L C R, Side: L R, LFE
Частота : 48,0 КГц
Битовая глубина : 16 бит
Метод сжатия : С потерями
Размер потока : 431 Мбайт (4%)
Язык : Russian
Default : Да
Forced : Нет
Аудио #2
Идентификатор : 3
Формат : AC-3
Формат/Информация : Audio Coding 3
Расширение режима : CM (complete main)
Параметр Endianness формата : Big
Идентификатор кодека : A_AC3
Продолжительность : 2 ч. 14 м.
Вид битрейта : Постоянный
Битрейт : 640 Кбит/сек
Каналы : 6 каналов
Расположение каналов : Front: L C R, Side: L R, LFE
Частота : 48,0 КГц
Битовая глубина : 16 бит
Метод сжатия : С потерями
Размер потока : 616 Мбайт (6%)
Заголовок : AC3 5.1 @ 640 kbps
Язык : French
Default : Нет
Forced : Нет
Текст #1
Идентификатор : 4
Формат : UTF-8
Идентификатор кодека : S_TEXT/UTF8
Идентификатор кодека/Информация : UTF-8 Plain Text
Язык : Russian
Default : Нет
Forced : Нет
Текст #2
Идентификатор : 5
Формат : UTF-8
Идентификатор кодека : S_TEXT/UTF8
Идентификатор кодека/Информация : UTF-8 Plain Text
Язык : English
Default : Нет
Forced : Нет
Текст #3
Идентификатор : 6
Формат : PGS
Режим смешивания : zlib
Идентификатор кодека : S_HDMV/PGS
Идентификатор кодека/Информация : The same subtitle format used on BDs/HD-DVDs
Язык : French
Default : Нет
Forced : Нет
Меню
00:00:00.000 : en:00:00:00.000
00:09:14.583 : en:00:09:14.583
00:21:11.333 : en:00:21:11.333
00:31:38.917 : en:00:31:38.917
00:44:36.833 : en:00:44:36.833
00:56:54.292 : en:00:56:54.292
01:06:07.042 : en:01:06:07.042
01:16:52.833 : en:01:16:52.833
01:29:24.333 : en:01:29:24.333
01:40:13.125 : en:01:40:13.125
01:48:31.917 : en:01:48:31.917
02:00:11.125 : en:02:00:11.125

Скриншоты


_________________
Показать сообщения:    

Текущее время: Сегодня 22:26

Часовой пояс: GMT



Вы не можете начинать темы
Вы не можете отвечать на сообщения
Вы не можете редактировать свои сообщения
Вы не можете удалять свои сообщения
Вы не можете голосовать в опросах
Вы не можете прикреплять файлы к сообщениям
Вы не можете скачивать файлы
Наши партнеры: интернет магазин Ивановского трикотажа textilla.ru