Ивановский Торрент трекер
Яндекс.Погода
 

[Цитировать]
HUNTER

Поиск! Клубная деятельность / Tesagure! Bukatsumono
Страна: Япония
Год выпуска: 2013 г.
Жанр: повседневность
Тип: TV
Продолжительность: 12 эп. по 11 мин.
Режиссер: Ишидатэ Котаро
Студия: Tesagure! Production Committee
Описание: Это анимационный сериал расскажет о внешкольной деятельности школьниц. Три подруги после церемонии вступления новичков решили поискать членов для своего кружка. Они основали его сами и назвали «Поиск!». Главная задача кружка поиск интересных кружков. Поиск недостатков и достоинств. Порой они просто их высмеивают. Наши героиня резво взялись за свое дело. Вам остается только проследить за их деятельностью.
Качество: BDRip
Тип релиза: Без хардсаба
Формат видео: MP4
Наличие линковки: Нет
Релиз/Автор рипа: Ohys-Raws
Видео: H264, 8 bits, 1280x720, 2047 kbps, 23.976fps
Аудио: AAC, 2ch, 183 kbps, 48kHz Язык Японский
Субтитры: ass, отдельным файлом Язык субтитров русский ; Перевод: Vii ; Редактор: Beta

Подробные тех. данные

Format : MPEG-4Format profile : Base MediaCodec ID : isomFile size : 206 MiBDuration : 11mn 1sOverall bit rate mode : VariableOverall bit rate : 2 614 Kbps
VideoID : 1Format : AVCFormat/Info : Advanced Video CodecFormat profile : High@L4.1Format settings, CABAC : YesFormat settings, ReFrames : 5 framesCodec ID : avc1Codec ID/Info : Advanced Video CodingDuration : 11mn 1sBit rate : 2 047 KbpsMaximum bit rate : 8 128 KbpsWidth : 1 280 pixelsHeight : 720 pixelsDisplay aspect ratio : 16:9Frame rate mode : ConstantFrame rate : 23.976 fpsColor space : YUVChroma subsampling : 4:2:0Bit depth : 8 bitsScan type : ProgressiveBits/(Pixel*Frame) : 0.093Stream size : 161 MiB (78%)Writing library : x264 core 128Encoding settings : cabac=1 / ref=6 / deblock=1:0:0 / analyse=0x3:0x113 / me=hex / subme=7 / psy=1 / psy_rd=1.00:0.00 / mixed_ref=1 / me_range=16 / chroma_me=1 / trellis=1 / 8x8dct=1 / cqm=0 / deadzone=21,11 / fast_pskip=1 / chroma_qp_offset=-2 / threads=12 / lookahead_threads=2 / sliced_threads=0 / nr=0 / decimate=1 / interlaced=0 / bluray_compat=1 / constrained_intra=0 / bframes=3 / b_pyramid=1 / b_adapt=1 / b_bias=0 / direct=1 / weightb=1 / open_gop=0 / weightp=1 / keyint=23 / keyint_min=1 / scenecut=40 / intra_refresh=0 / rc_lookahead=23 / rc=crf / mbtree=1 / crf=20.0 / qcomp=0.60 / qpmin=1 / qpmax=69 / qpstep=8 / ip_ratio=1.40 / aq=1:1.00
Audio #1ID : 2Format : AACFormat/Info : Advanced Audio CodecFormat profile : LCCodec ID : 40Duration : 11mn 1sBit rate mode : VariableBit rate : 183 KbpsMaximum bit rate : 244 KbpsChannel count : 2 channelsChannel positions : Front: L RSampling rate : 48.0 KHzCompression mode : LossyDelay relative to video : 83msStream size : 14.4 MiB (7%)Language : Japanese
Audio #2ID : 3Format : AACFormat/Info : Advanced Audio CodecFormat profile : LCCodec ID : 40Duration : 11mn 1sBit rate mode : VariableBit rate : 192 KbpsMaximum bit rate : 244 KbpsChannel count : 2 channelsChannel positions : Front: L RSampling rate : 48.0 KHzCompression mode : LossyDelay relative to video : 83msStream size : 15.0 MiB (7%)Language : Japanese
Audio #3ID : 4Format : AACFormat/Info : Advanced Audio CodecFormat profile : LCCodec ID : 40Duration : 11mn 1sBit rate mode : VariableBit rate : 186 KbpsMaximum bit rate : 241 KbpsChannel count : 2 channelsChannel positions : Front: L RSampling rate : 48.0 KHzCompression mode : LossyDelay relative to video : 83msStream size : 14.6 MiB (7%)Language : Japanese

Список эпизодов

1. Добро пожаловать
2. Настоящая любовь
3. Каприз
4. Достоинство
5. Стремление
6. Одинокая любовь

Скриншоты

Показать сообщения:    

Текущее время: 18-Окт 23:01

Часовой пояс: UTC - 1


Вы не можете начинать темы
Вы не можете отвечать на сообщения
Вы не можете редактировать свои сообщения
Вы не можете удалять свои сообщения
Вы не можете голосовать в опросах
Вы не можете прикреплять файлы к сообщениям
Вы не можете скачивать файлы

!ВНИМАНИЕ!
Сайт не предоставляет электронные версии произведений, а занимается лишь коллекционированием и каталогизацией ссылок, присылаемых и публикуемых на форуме нашими читателями. Если вы являетесь правообладателем какого-либо представленного материала и не желаете, чтобы ссылка на него находилась в нашем каталоге, свяжитесь с нами, и мы незамедлительно удалим ее. Файлы для обмена на трекере предоставлены пользователями сайта, и администрация не несет ответственности за их содержание. Просьба не заливать файлы, защищенные авторскими правами, а также файлы нелегального содержания!