Ивановский Торрент трекер
Яндекс.Погода
 

[Цитировать]
HUNTER

Поза ребенка / Pozitia copilului - Год выпуска: 2013
Страна: Румыния
Жанр: драма
Продолжительность: 01:47:33
Перевод: Любительский (двухголосый) [DeadSno & den904]
Субтитры: Russian, English, Romanian -В ролях: Луминица Георгиу, Богдан Думитраке, Наташа Рааб, Илинка Гойя, Флорин Замфиреску, Влад Иванов, Мими Брэнеску, Черасела Иосифеску, Адриан Титьени, Таня Попа, Истфан Александру
Режиссёр: Калин Питер Нецер - -Мужчина по имени Барбу, одним мартовским вечером колесил на своем автомобиле, превышая при этом допустимую скорость. Неожиданно на огромной скорости он сбивает маленького ребенка. Мальчик умирает вскоре после аварии а Барбу ждет длительный срок лишения свободы. Но тут его мать, Корнелия, пытается отмазать сынка.-Качество: HDTV 1080p
Формат: MKV
Видео кодек: AVC
Аудио кодек: AC-3
Видео: AVC, 1920x816, 6838 Кбит/сек, 25.000 кадр/сек
Аудио 1: AC-3, 192 Кбит/сек, 2 канала(ов), 48,0 КГц (Russian)
Аудио 2: AC-3, 384 Кбит/сек, 2 канала(ов), 48,0 КГц (Romanian)-

Рейтинг:

Рейтинг:

MediaInfo:

General
Unique ID : 243646361598972699095184536896900623395 (0xB74C9515D61AB776B075BE8BF4B2EC23)
Complete name : C:\Users\Fr1sk\Desktop\Новая папка (2)\Childs.Pose.2013.HDTV.1080p.CINEMANIA.mkv
Format : Matroska
Format version : Version 4 / Version 2
File size : 5.68 GiB
Duration : 1h 47mn
Overall bit rate : 7 565 Kbps
Movie name : Release Group CINEMANIA
Encoded date : UTC 2013-11-18 21:24:18
Writing application : mkvmerge v6.5.0 ('Isn't she lovely') built on Oct 20 2013 12:50:05
Writing library : libebml v1.3.0 + libmatroska v1.4.1
Video
ID : 1
Format : AVC
Format/Info : Advanced Video Codec
Format profile : High@L4.0
Format settings, CABAC : Yes
Format settings, ReFrames : 4 frames
Codec ID : V_MPEG4/ISO/AVC
Duration : 1h 47mn
Bit rate : 6 838 Kbps
Width : 1 920 pixels
Height : 816 pixels
Display aspect ratio : 2.35:1
Frame rate mode : Constant
Frame rate : 25.000 fps
Color space : YUV
Chroma subsampling : 4:2:0
Bit depth : 8 bits
Scan type : Progressive
Bits/(Pixel*Frame) : 0.175
Stream size : 5.14 GiB (90%)
Title : Release Group CINEMANIA
Writing library : x264 core 130 r2273 b3065e6
Encoding settings : cabac=1 / ref=4 / deblock=1:-2:-2 / analyse=0x3:0x133 / me=umh / subme=9 / psy=1 / psy_rd=1.00:0.00 / mixed_ref=1 / me_range=32 / chroma_me=1 / trellis=2 / 8x8dct=1 / cqm=0 / deadzone=21,11 / fast_pskip=0 / chroma_qp_offset=-2 / threads=12 / lookahead_threads=1 / sliced_threads=0 / nr=0 / decimate=1 / interlaced=0 / bluray_compat=0 / constrained_intra=0 / bframes=5 / b_pyramid=2 / b_adapt=2 / b_bias=0 / direct=3 / weightb=1 / open_gop=0 / weightp=2 / keyint=250 / keyint_min=25 / scenecut=40 / intra_refresh=0 / rc_lookahead=50 / rc=crf / mbtree=1 / crf=20.0 / qcomp=0.60 / qpmin=0 / qpmax=69 / qpstep=4 / ip_ratio=1.40 / aq=1:1.00
Language : English
Default : Yes
Forced : No
Color primaries : BT.709
Transfer characteristics : BT.709
Matrix coefficients : BT.709
Audio #1
ID : 2
Format : AC-3
Format/Info : Audio Coding 3
Mode extension : CM (complete main)
Format settings, Endianness : Big
Codec ID : A_AC3
Duration : 1h 47mn
Bit rate mode : Constant
Bit rate : 192 Kbps
Channel(s) : 2 channels
Channel positions : Front: L R
Sampling rate : 48.0 KHz
Bit depth : 16 bits
Compression mode : Lossy
Stream size : 148 MiB (3%)
Title : den904 & DeadSno
Language : Russian
Default : Yes
Forced : Yes
Audio #2
ID : 3
Format : AC-3
Format/Info : Audio Coding 3
Mode extension : CM (complete main)
Format settings, Endianness : Big
Codec ID : A_AC3
Duration : 1h 47mn
Bit rate mode : Constant
Bit rate : 384 Kbps
Channel(s) : 2 channels
Channel positions : Front: L R
Sampling rate : 48.0 KHz
Bit depth : 16 bits
Compression mode : Lossy
Stream size : 295 MiB (5%)
Language : Romanian
Default : No
Forced : No
Text #1
ID : 4
Format : UTF-8
Codec ID : S_TEXT/UTF8
Codec ID/Info : UTF-8 Plain Text
Title : Серджиу Лосай
Language : Russian
Default : No
Forced : No
Text #2
ID : 5
Format : UTF-8
Codec ID : S_TEXT/UTF8
Codec ID/Info : UTF-8 Plain Text
Language : English
Default : No
Forced : No
Text #3
ID : 6
Format : UTF-8
Codec ID : S_TEXT/UTF8
Codec ID/Info : UTF-8 Plain Text
Language : Romanian
Default : No
Forced : No

Скриншоты:



Показать сообщения:    

Текущее время: 17-Дек 21:43

Часовой пояс: UTC ± 0


Вы не можете начинать темы
Вы не можете отвечать на сообщения
Вы не можете редактировать свои сообщения
Вы не можете удалять свои сообщения
Вы не можете голосовать в опросах
Вы не можете прикреплять файлы к сообщениям
Вы не можете скачивать файлы

!ВНИМАНИЕ!
Сайт не предоставляет электронные версии произведений, а занимается лишь коллекционированием и каталогизацией ссылок, присылаемых и публикуемых на форуме нашими читателями. Если вы являетесь правообладателем какого-либо представленного материала и не желаете, чтобы ссылка на него находилась в нашем каталоге, свяжитесь с нами, и мы незамедлительно удалим ее. Файлы для обмена на трекере предоставлены пользователями сайта, и администрация не несет ответственности за их содержание. Просьба не заливать файлы, защищенные авторскими правами, а также файлы нелегального содержания!