Важное объявление!
У Нас Все раздачи мультитрекерные, при нуле пиров в релизах, можете смело вставать на закачку!
 
Автор Сообщение

HUNTER

Стаж:
4 года 8 месяцев
Сообщений:
62035

Репутация: 101

[+] [-]
Вне форума [Профиль] [ЛС]

Поза ребенка / Pozitia copilului-Год выпуска: 2013
Страна: Румыния
Жанр: Драма
Продолжительность: 01:47:33
Перевод: Любительский (двухголосый закадровый) [DeadSno & den904]
Субтитры: Нет-В ролях: Луминица Георгиу, Богдан Думитраке, Натаса Рааб, Илинка Гойя, Флорин Замфиреску, Влад Иванов, Мими Брэнеску, Черасела Иосифеску, Адриан Титьени, Таня Попа, Истфан Александру
Режиссёр: Калин Питер Нецер / Calin Peter Netzer-Описание: Одним холодным вечером в марте Барбу колесит по улицам, сильно превышая скорость, и сбивает ребенка. Мальчик умирает вскоре после аварии. Барбу ожидает лишение свободы на срок от 3-х до 15-ти лет. Но тут его мать, Корнелия, решает вмешаться, чтобы отмазать сынка-Качество: HDTVRip
Формат: AVI
Видео кодек: XviD
Аудио кодек: MP3
Видео: XviD, 688x288 (2.40:1), 25,000 fps, 834 kbps, 0,168 Bits/(Pixel*Frame)
Аудио: MP3, 48 kHz, 2 ch, 192 kbps-Сэмпл

Рейтинг

Рейтинг:

MediaInfo

General
Complete name : F:\Childs.Pose.2013.HDTVRip_by_Bathory.avi
Format : AVI
Format/Info : Audio Video Interleave
File size : 751 MiB
Duration : 1h 47mn
Overall bit rate mode : Variable
Overall bit rate : 976 Kbps
Writing application : VirtualDubMod 1.5.10.3 | www.virtualdub-fr.org || (build 2550/release)
Writing library : VirtualDubMod build 2550/release
Video
ID : 0
Format : MPEG-4 Visual
Format profile : Advanced Simple@L5
Format settings, BVOP : 1
Format settings, QPel : No
Format settings, GMC : No warppoints
Format settings, Matrix : Default (MPEG)
Codec ID : XVID
Codec ID/Hint : XviD
Duration : 1h 47mn
Bit rate : 834 Kbps
Width : 688 pixels
Height : 288 pixels
Display aspect ratio : 2.40:1
Frame rate : 25.000 fps
Color space : YUV
Chroma subsampling : 4:2:0
Bit depth : 8 bits
Scan type : Progressive
Compression mode : Lossy
Bits/(Pixel*Frame) : 0.168
Stream size : 641 MiB (85%)
Writing library : XviD 73
Audio
ID : 1
Format : MPEG Audio
Format version : Version 1
Format profile : Layer 3
Codec ID : 55
Codec ID/Hint : MP3
Duration : 1h 47mn
Bit rate mode : Variable
Bit rate : 129 Kbps
Minimum bit rate : 32.0 Kbps
Channel count : 2 channels
Sampling rate : 48.0 KHz
Compression mode : Lossy
Stream size : 99.6 MiB (13%)
Alignment : Aligned on interleaves
Interleave, duration : 24 ms (0.60 video frame)
Interleave, preload duration : 201 ms
Writing library : LAME3.99r
Encoding settings : -m s -V 5 -q 0 -lowpass 17 --vbr-new -b 32

Скриншот c названием фильма

Скриншоты

Автор рипа: Bathory

_________________
Показать сообщения:    

Текущее время: Сегодня 13:47

Часовой пояс: GMT



Вы не можете начинать темы
Вы не можете отвечать на сообщения
Вы не можете редактировать свои сообщения
Вы не можете удалять свои сообщения
Вы не можете голосовать в опросах
Вы не можете прикреплять файлы к сообщениям
Вы не можете скачивать файлы
Наши партнеры: интернет магазин Ивановского трикотажа textilla.ru