Ивановский Торрент трекер
Яндекс.Погода
 

[Цитировать]
димитри37

Пожирание плоти / Gnaw
Как хорошо, что ваши друзья будут на обед!
Название: Пожирание плоти
Оригинальное название: Gnaw
Год выпуска: 2008
Страна: Великобритания
Жанр: ужасы
Продолжительность: 01:17:00
Перевод: Авторский (одноголосый)
Cубтитры: английские, немецкие, немецкие (forced)
Оригинальная аудиодорожка: английский
Режиссер: Грегори Мендри / Gregory Mandry
В ролях: Сара Дилан / Sara Dylan , Рейчел Митчем / Rachel Mitchem , Оливер Сквайрз / Oliver Squires , Дженнифер Рен / Jennifer Wren и другие.
ВНИМАНИЕ! Фильм содержит ненормативную лексику! 18+
Описание:Шестеро друзей решили провести выходные в британской глубинке, но они даже не могли себе представить, что эти выходные превратятся в сущий кошмар, когда они встретятся с хозяевами-каннибалами фермы.


Тип релиза: BDRemux 1080p
Контейнер: MKV
Видео: MPEG-4 AVC Video / 25425 kbps / 1080p / 25,000 fps / 16:9 / High Profile 4.1
Аудио #1: Russian: 48 kHz, AC3, 3/2 (L,C,R,l,r) + LFE ch, ~448.00 kbps avg - [VO RussianGuy27]
Аудио #2: English: 48 kHz, AC3, 3/2 (L,C,R,l,r) + LFE ch, ~640.00 kbps avg - [Original]
Формат субтитров: softsub (SRT)
Чаптеры: Сохранены оригинальные чаптеры с Blu-Ray

Скриншоты

-

MediaInfo

Format                                   : Matroska
Format version                           : Version 2
File size                                : 14.3 GiB
Duration                                 : 1h 17mn
Overall bit rate                         : 26.5 Mbps
Movie name                               : Arifis for GORESEWAGE
Encoded date                             : UTC 2013-05-11 07:26:26
Writing application                      : mkvmerge v5.2.1 ('A Far Off Place') built on Jan  2 2012 23:21:10
Writing library                          : libebml v1.2.3 + libmatroska v1.3.0
Video
ID                                       : 1
Format                                   : AVC
Format/Info                              : Advanced Video Codec
Format profile                           : High@L4.1
Format settings, CABAC                   : Yes
Format settings, ReFrames                : 4 frames
Codec ID                                 : V_MPEG4/ISO/AVC
Duration                                 : 1h 17mn
Bit rate mode                            : Constant
Bit rate                                 : 24.9 Mbps
Nominal bit rate                         : 30.0 Mbps
Width                                    : 1 920 pixels
Height                                   : 1 080 pixels
Display aspect ratio                     : 16:9
Frame rate mode                          : Constant
Frame rate                               : 25.000 fps
Standard                                 : PAL
Color space                              : YUV
Chroma subsampling                       : 4:2:0
Bit depth                                : 8 bits
Scan type                                : MBAFF
Bits/(Pixel*Frame)                       : 0.480
Stream size                              : 13.4 GiB (94%)
Title                                    : Gnaw (Arifis for GORESEWAGE)
Default                                  : Yes
Forced                                   : No
Color primaries                          : BT.709
Transfer characteristics                 : BT.709
Matrix coefficients                      : BT.709
Audio #1
ID                                       : 2
Format                                   : AC-3
Format/Info                              : Audio Coding 3
Mode extension                           : CM (complete main)
Format settings, Endianness              : Big
Codec ID                                 : A_AC3
Duration                                 : 1h 17mn
Bit rate mode                            : Constant
Bit rate                                 : 448 Kbps
Channel(s)                               : 6 channels
Channel positions                        : Front: L C R, Side: L R, LFE
Sampling rate                            : 48.0 KHz
Bit depth                                : 16 bits
Compression mode                         : Lossy
Stream size                              : 247 MiB (2%)
Title                                    : AC3 5.1 @ 448 kbps - VO, RussianGuy27
Language                                 : Russian
Default                                  : Yes
Forced                                   : No
Audio #2
ID                                       : 3
Format                                   : AC-3
Format/Info                              : Audio Coding 3
Mode extension                           : CM (complete main)
Format settings, Endianness              : Big
Codec ID                                 : A_AC3
Duration                                 : 1h 17mn
Bit rate mode                            : Constant
Bit rate                                 : 640 Kbps
Channel(s)                               : 6 channels
Channel positions                        : Front: L C R, Side: L R, LFE
Sampling rate                            : 48.0 KHz
Bit depth                                : 16 bits
Compression mode                         : Lossy
Stream size                              : 353 MiB (2%)
Title                                    : AC3 5.1 @ 640 kbps - Original
Language                                 : English
Default                                  : No
Forced                                   : No
Text #1
ID                                       : 4
Format                                   : UTF-8
Codec ID                                 : S_TEXT/UTF8
Codec ID/Info                            : UTF-8 Plain Text
Title                                    : Full Eng
Language                                 : English
Default                                  : No
Forced                                   : No
Text #2
ID                                       : 5
Format                                   : UTF-8
Codec ID                                 : S_TEXT/UTF8
Codec ID/Info                            : UTF-8 Plain Text
Title                                    : Full Ger
Language                                 : German
Default                                  : No
Forced                                   : No
Text #3
ID                                       : 6
Format                                   : UTF-8
Codec ID                                 : S_TEXT/UTF8
Codec ID/Info                            : UTF-8 Plain Text
Title                                    : Forced Ger
Language                                 : German
Default                                  : No
Forced                                   : No
Menu
00:00:00.000                             : :Chapter 01
00:10:13.800                             : :Chapter 02
00:18:41.080                             : :Chapter 03
00:25:31.159                             : :Chapter 04
00:33:15.680                             : :Chapter 05
00:42:05.440                             : :Chapter 06
00:49:02.080                             : :Chapter 07
00:54:02.640                             : :Chapter 08
00:58:17.320                             : :Chapter 09
01:00:36.560                             : :Chapter 10
01:04:10.840                             : :Chapter 11
01:11:09.840                             : :Chapter 12
-


Показать сообщения:    

Текущее время: 15-Дек 13:51

Часовой пояс: UTC ± 0


Вы не можете начинать темы
Вы не можете отвечать на сообщения
Вы не можете редактировать свои сообщения
Вы не можете удалять свои сообщения
Вы не можете голосовать в опросах
Вы не можете прикреплять файлы к сообщениям
Вы не можете скачивать файлы

!ВНИМАНИЕ!
Сайт не предоставляет электронные версии произведений, а занимается лишь коллекционированием и каталогизацией ссылок, присылаемых и публикуемых на форуме нашими читателями. Если вы являетесь правообладателем какого-либо представленного материала и не желаете, чтобы ссылка на него находилась в нашем каталоге, свяжитесь с нами, и мы незамедлительно удалим ее. Файлы для обмена на трекере предоставлены пользователями сайта, и администрация не несет ответственности за их содержание. Просьба не заливать файлы, защищенные авторскими правами, а также файлы нелегального содержания!