Важное объявление!
У Нас Все раздачи мультитрекерные, при нуле пиров в релизах, можете смело вставать на закачку!
 
Автор Сообщение

HUNTER

Стаж:
4 года 10 месяцев
Сообщений:
65542

Репутация: 101

[+] [-]
Вне форума [Профиль] [ЛС]

Под куполом / Under the Dome-
-Сезон: 1, Серия: 1-13-Год выпуска: 2013
Страна: С.Ш.А.
Жанр: фантастика, триллер, драма, детектив
Продолжительность: ~00:43:00
Перевод: Профессиональный (многоголосый закадровый) [BaibaKo]
Субтитры: нет
Режиссер: Джек Бендер
В ролях: Майк Фогель, Колин Форд, Аиша Хиндс, Александр Кох, Рашель Лефевр, Натали Мартинез, Дин Норрис, Джолин Парди, Бриттани Робертсон, Николас Стронг и др.
-Описание:-Обычным погожим осенним днём город Честерс Милл, штат Мэн, оказывается внезапно отрезанным от остального мира невидимым барьером. В купол врезается самолёт. Загадочное силовое поле не щадит ни постройки, ни автомобили, ни животных, ни людей. Выехавшие в соседний город по делам не могут вернуться к своим близким. Никто не понимает, что это за барьер, откуда он взялся и исчезнет ли.
Дейл Барбара, ветеран войны в Ираке, а ныне повар, теперь в одной команде с несколькими отважными жителями — Джулией Шамвей, владелицей городской газеты, помощником врача, женщиной и тремя храбрыми детьми. Против них выступает Большой Джим Ренни — местный политический деятель, который для удержания власти не остановится ни перед чем, даже перед убийством, а также его сын со своим личным «скелетом в шкафу». Но главный их противник — сам Купол…
-Качество видео: WEB-DLRip
Видео кодек: AVI
Аудио кодек: MP3
Видео: 720x400 (16:9) Xvid 23.976 fps ~1500 Kbps
Аудио Rus: 48 kHz, MPEG Layer 3, 2 ch, 192 kbps CBR
Аудио Eng: 48 kHz, MPEG Layer 3, 2 ch, 192 kbps CBR
-Сэмпл-

Название эпизодов:

01 - Pilot / Пилот, 02 - The Fire / Пожар, 03 - Manhunt / Преследование, 04 - Outbreak / Вспышка, 05 - Blue on Blue / Удар по своим, 06 - The Endless Thirst / Бесконечная жажда, 07 - Imperfect Circles / Несовершенные круги, 08 - Thicker Than Water / Кровь не водица, 09 - The Fourth Hand / Четвёртая рука, 10 - Let the Games Begin / Да начнётся игра!, 11 - Speak of the Devil / Помяни чёрта, 12 - Exigent Circumstances / Неотложные обстоятельства, 13 - Curtains / Занавес
-

Над релизом работали:

Озвучка: Юлия Котурбаш, Светлана Доманова, Артемий Мирон и Алексей Кузнецов
Автор перевода: Янина Галицкая
Релиз группы:
-

MediaInfo:

General
Complete name : D:\Downloads\Under the Dome - Под куполом. Сезон 1. BaibaKo\Under.the.Dome.s01e01.WEB-DLRip.XviD.Rus.Eng.BaibaKo.tv.avi
Format : AVI
Format/Info : Audio Video Interleave
File size : 583 MiB
Duration : 42mn 47s
Overall bit rate : 1 904 Kbps
Writing application : VirtualDubMod 1.5.10.2 (build 2542/release)
Writing library : VirtualDubMod build 2542/release
Video
ID : 0
Format : MPEG-4 Visual
Format profile : Advanced Simple@L5
Format settings, BVOP : Yes
Format settings, QPel : No
Format settings, GMC : No warppoints
Format settings, Matrix : Default (H.263)
Codec ID : XVID
Codec ID/Hint : XviD
Duration : 42mn 47s
Bit rate : 1 506 Kbps
Width : 720 pixels
Height : 400 pixels
Display aspect ratio : 16:9
Frame rate : 23.976 fps
Color space : YUV
Chroma subsampling : 4:2:0
Bit depth : 8 bits
Scan type : Progressive
Compression mode : Lossy
Bits/(Pixel*Frame) : 0.218
Stream size : 461 MiB (79%)
Writing library : XviD 1.2.1 (UTC 2008-12-04)
Audio #1
ID : 1
Format : MPEG Audio
Format version : Version 1
Format profile : Layer 3
Mode : Joint stereo
Codec ID : 55
Codec ID/Hint : MP3
Duration : 42mn 47s
Bit rate mode : Constant
Bit rate : 192 Kbps
Channel count : 2 channels
Sampling rate : 48.0 KHz
Compression mode : Lossy
Stream size : 58.8 MiB (10%)
Alignment : Aligned on interleaves
Interleave, duration : 42 ms (1.00 video frame)
Interleave, preload duration : 504 ms
Writing library : LAME3.99r
Encoding settings : -m j -V 4 -q 2 -lowpass 18.6 -b 192
Audio #2
ID : 2
Format : MPEG Audio
Format version : Version 1
Format profile : Layer 3
Mode : Joint stereo
Mode extension : MS Stereo
Codec ID : 55
Codec ID/Hint : MP3
Duration : 42mn 47s
Bit rate mode : Constant
Bit rate : 192 Kbps
Channel count : 2 channels
Sampling rate : 48.0 KHz
Compression mode : Lossy
Stream size : 58.8 MiB (10%)
Alignment : Aligned on interleaves
Interleave, duration : 42 ms (1.00 video frame)
Interleave, preload duration : 504 ms
Writing library : LAME3.99r
Encoding settings : -m j -V 4 -q 2 -lowpass 18.6 -b 192
-

Скриншоты:


-

Раздача ведётся путём добавления новых серий:

Внимание! Раздача ведётся путём добавления новых серий; при каждом добавлении создаётся новый торрент. Чтобы начать докачку новой серии, пользователям необходимо сделать следующее:
  • Остановить скачивание.
  • Удалить старый торрент у себя из клиента (старые серии удалять не надо).
  • Скачать новый торрент и запустить его у себя в клиенте вместо старого, при этом указать клиенту путь в старую папку куда и должно происходить скачивание новых серий.
Ваш клиент при этом должен произвести хеширование (проверку) старой папки (если не производит сам - помогите ему сделать это), и будет докачивать только те серии которых у вас ещё нет. Старые серии при этом не удаляются, а продолжают раздаваться!-Eсли вы уже удалили старые серии, то предотвратить повторную закачку старых серий можно, отжав галочку в соответсвующих местах при запуске нового торрента. По возможности, желательно не удалять старые серии как можно дольше чтобы релизёр не столько продолжал раздавать старые серии, а смог сконцентрироваться на новых.
-

_________________
Показать сообщения:    

Текущее время: Сегодня 19:08

Часовой пояс: GMT



Вы не можете начинать темы
Вы не можете отвечать на сообщения
Вы не можете редактировать свои сообщения
Вы не можете удалять свои сообщения
Вы не можете голосовать в опросах
Вы не можете прикреплять файлы к сообщениям
Вы не можете скачивать файлы