Важное объявление!
У Нас Все раздачи мультитрекерные, при нуле пиров в релизах, можете смело вставать на закачку!
Статистика раздачи
Размер:     |    Зарегистрирован:     |    Скачан:     |   
Нет
 
     
 
 
Автор Сообщение

HUNTER

Стаж:
5 лет
Сообщений:
68391

Репутация: 101

[+] [-]
Вне форума [Профиль] [ЛС]

---Под куполом--"Under the Dome"--«They are all trapped inside.»--
--Страна: США
Год выпуска: 2013
Жанр: ужасы, триллер, драма, детектив, фантастика
Продолжительность: ~:43:00
Перевод: Профессиональный (многоголосый закадровый) [BaibaKo]
Русские субтитры: нет--Режиссёр: Джек Бендер, Кари Скогланд
В ролях:Майк Фогель, Рашель Лефевр, Натали Мартинез, Бритт Робертсон, Александр Кок, Колин Форд, Дин Норрис, Маккензи Линтц, Николас Стронг, Джолин Парди--Описание:
Обычным, пригожим осенним днем, город Честерс Миллз, штат Мэн, был внезапно отрезан от остального мира невидимым силовым барьером. Самолеты врезаются в купол и падают, пылая, с небес; садовнику отрезает силовым полем руку; люди, выехавшие в соседний город по делам, не могут вернуться к своим близким; автомобили взрываются от столкновения с куполом. Никто не понимает, что это за барьер, откуда он взялся и исчезнет ли он.
Дейл Барбара, ветеран конфликта в Ираке, а ныне «выбиватель» долгов, обнаруживает себя в команде с несколькими отважными жителями — Джулией Шамвей, владелицей городской газеты, помощником врача, женщиной и тремя храбрыми детьми. Против них выступает Большой Джим Ренни — местный политический деятель, который для удержания власти не остановится ни перед чем, даже перед убийством, а также его сын со своим личным «скелетом в шкафу». Но главный их противник — сам Купол…----
Качество: WEB-DL 1080
Формат: MKV
Видео кодек: AVC
Аудио кодек: AC3
Видео: MPEG4, 16:9, 1920x1080, 4 833 Кбит/сек, 23.976 кадра/сек
Аудио №1: Russian; Dolby AC3 384 Kbps, 48 KHz, 6ch - [BaibaKo]
Аудио №2: English; Dolby AC3 384 Kbps, 48 KHz, 6ch - [Original]

Рейтинг

|

Список серий

01 - Pilot / Пилот
02 - The Fire / Пожар
03 - Manhunt / Преследование
04 - Outbreak / Вспышка
05 - Blue on Blue / Удар по своим
06 - The Endless Thirst / Бесконечная жажда
07 - Imperfect Circles / Несовершенные круги
08 - Thicker Than Water / Кровь не водица
09 - The Fourth Hand / Четвёртая рука
10 - Let the Games Begin / Да начнётся игра!
11 - Speak of the Devil / Помяни чёрта
12 - Exigent Circumstances / Неотложные обстоятельства
13 - Curtains / Занавес

Media Info

Код: copyText_writeLink('this.parentNode.parentNode.nextSibling.nextSibling');
General
Complete name :Under.the.Dome.s01e01.HD1080p.WEB-DL.Rus.Eng.BaibaKo.tv.mkv
Format : Matroska
Format version : Version 4 / Version 2
File size : 1.71 GiB
Duration : 42mn 47s
Overall bit rate : 5 715 Kbps
Movie name : BaibaKo.tv presents - Под куполом 1x01 Пилот
Encoded date : UTC 2010-02-22 21:41:31
Writing application : mkvmerge v5.9.0 ('On The Loose') built on Dec 9 2012 15:37:01
Writing library : libebml v1.3.0 + libmatroska v1.4.0
Video
ID : 1
Format : AVC
Format/Info : Advanced Video Codec
Format profile : [url=mailto:High@L4.0]High@L4.0[/url]
Format settings, CABAC : Yes
Format settings, ReFrames : 4 frames
Codec ID : V_MPEG4/ISO/AVC
Duration : 42mn 47s
Bit rate : 4 833 Kbps
Width : 1 920 pixels
Height : 1 080 pixels
Display aspect ratio : 16:9
Frame rate mode : Constant
Frame rate : 23.976 fps
Color space : YUV
Chroma subsampling : 4:2:0
Bit depth : 8 bits
Scan type : Progressive
Bits/(Pixel*Frame) : 0.097
Stream size : 1.44 GiB (85%)
Language : English
Default : Yes
Forced : No
Color primaries : BT.709
Transfer characteristics : BT.709
Matrix coefficients : BT.709
Audio #1
ID : 2
Format : AC-3
Format/Info : Audio Coding 3
Mode extension : CM (complete main)
Format settings, Endianness : Big
Codec ID : A_AC3
Duration : 42mn 47s
Bit rate mode : Constant
Bit rate : 384 Kbps
Channel(s) : 6 channels
Channel positions : Front: L C R, Side: L R, LFE
Sampling rate : 48.0 KHz
Bit depth : 16 bits
Compression mode : Lossy
Stream size : 118 MiB (7%)
Title : Rus BaibaKo.tv DD5.1
Language : Russian
Default : Yes
Forced : No
Audio #2
ID : 3
Format : AC-3
Format/Info : Audio Coding 3
Mode extension : CM (complete main)
Format settings, Endianness : Big
Codec ID : A_AC3
Duration : 42mn 47s
Bit rate mode : Constant
Bit rate : 384 Kbps
Channel(s) : 6 channels
Channel positions : Front: L C R, Side: L R, LFE
Sampling rate : 48.0 KHz
Bit depth : 16 bits
Compression mode : Lossy
Stream size : 118 MiB (7%)
Title : Eng DD5.1
Language : English
Default : No
Forced : No

Скриншоты

*Добавлена 13-ая серия!
*ФИНАЛ СЕЗОНА*

Внимание! Раздача ведётся путём добавления новых серий!

Раздача ведётся путём добавления новых серий, при каждом добавлении создётся новый торрент. Чтобы начать докачку новой серии, пользователям необходимо сделать следующее:
(1) остановить скачивание,
(2) удалить старый торрент у себя из клиента (старые серии удалять не надо),
(3) скачать новый торрент и запустить его у себя в клиенте вместо старого, при этом указать клиенту путь в старую папку куда и должно происходить скачивание новых серий.
Ваш клиент при этом должен произвести хеширование (проверку) старой папки (если не производит сам - помогите ему сделать это), и будет докачивать только те серии которых у вас ещё нет. Старые серии при этом не удаляются, а продолжают раздаваться!
Eсли вы уже удалили старые серии, то предотвратить повторную закачку старых серий можно, отжав галочку в соответсвующих местах при запуске нового торрента.
---Мои раздачи---
--По ночам не рaздаю!---

_________________
Показать сообщения:    

Текущее время: Сегодня 02:02

Часовой пояс: GMT



Вы не можете начинать темы
Вы не можете отвечать на сообщения
Вы не можете редактировать свои сообщения
Вы не можете удалять свои сообщения
Вы не можете голосовать в опросах
Вы не можете прикреплять файлы к сообщениям
Вы не можете скачивать файлы