Подставное лицо / The Front (Мартин Ритт / Martin Ritt) [1976, США, Драма, комедия, BDRip 1080p] DVO + VO + Original Eng + Sub Rus Eng :: Ивановский Торрент трекер
Важное объявление!
У Нас Все раздачи мультитрекерные, при нуле пиров в релизах, можете смело вставать на закачку!
 
Автор Сообщение

HUNTER

Стаж:
4 года 11 месяцев
Сообщений:
66045

Репутация: 101

[+] [-]
Вне форума [Профиль] [ЛС]

Подставное лицо / The Front-
Страна: США
Год выпуска: 1976
Студия: Columbia Pictures
Жанр: Драма, комедия
Продолжительность: 01:34:47
Перевод: есть (профессиональный двухголосый закадровый + одноголосый закадровый), позаимствованы тут
Оригинальная аудиодорожка: есть (английская)
Cубтитры: есть (русские, английские)
Навигация по главам: есть-Режиссер: Мартин Ритт / Martin Ritt
Оператор: Майкл Чэпмен / Michael Chapman
Композитор: Дейв Грузин
В ролях: Вуди Аллен, Зеро Мостел, Майкл Мерфи, Андреа Марковиччи, Хершел Бернарди, Дэнни Айелло и др.

Описание: Начало пятидесятых годов в США. Талантливый телевизионный сценарист Альфред Миллер, попавший в черный список лиц, сочувствующих коммунистическим идеям, теряет работу. Он обращается к приятелю и предлагает тому стать подставным лицом на телевидении.
Ховард — неудачник и игрок. Обещанные десять процентов с гонорара ему не помешают. Очень скоро молодой писатель Ховард становится популярным. Продюсеры в недоумении,- откуда взялся столь талантливый сценарист? Ховард набирается смелости и начинает ухаживать за очаровательной Флоренс, работающей на телевидении.
Поскольку он полный профан в литературе, ему приходится заняться самообразованием. Ховарду приходит в голову гениальная идея: почему бы ему не представлять еще пару-тройку опальных писателей?..-Тип релиза: BDRip 1080p
Контейнер: MKV
Видео: H.264 / 1920x1040 (16:9) / 23.976 fps / 12.4 Mbps / High@L4.1
Аудио №1: AC3 / 2.0 / 16 bits / 48 KHz / 160 Kbps / Русский (DVO)
Аудио №2: AC3 / 2.0 / 16 bits / 48 KHz / 192 Kbps / Русский (VO)
Аудио №3: DTS / 1.0 / 24 bits / 48 KHz / 755 Kbps / Английский (Original | mono)
Аудио №4: DTS / 2.0 / 24 bits / 48 KHz / 1510 Kbps / Английский (Isolated Score: Dave Grusin | stereo)
Аудио №5: DTS / 2.0 / 24 bits / 48 KHz / 256 Kbps / Английский (Commentary: Andrea Marcovicci, Julie Kirgo & Nick Redman)
Субтитры №1: softsub (SRT) / Русский
Субтитры №3: softsub (SRT) / Английский
Субтитры №2: prerendered (DVD/IDX+SUB) / Английский
Аппаратная совместимость: Рип полностью совместим с железными медиаплеерами, проверено на телевизоре Panasonic TX-PR50VT60.

MediaInfo

General
Unique ID : 237965528082101119761314203308434473838 (0xB3067E5E4ED11CF9AE84382E7421436E)
Complete name : J:\КИНО 4\Подставное лицо - The Front [BDRip 1080p] (1976)\The.Front.1976.1080p.BDRip.X264.mkv
Format : Matroska
File size : 10.2 GiB
Duration : 1h 34mn
Overall bit rate : 15.3 Mbps
Encoded date : UTC 2015-01-13 19:39:30
Writing application : mkvmerge v6.9.1 ('Blue Panther') 64bit built on Apr 18 2014 18:23:38
Writing library : libebml v1.3.0 + libmatroska v1.4.1
Video
ID : 1
Format : AVC
Format/Info : Advanced Video Codec
Format profile : High@L4.1
Format settings, CABAC : Yes
Format settings, ReFrames : 4 frames
Codec ID : V_MPEG4/ISO/AVC
Duration : 1h 34mn
Bit rate : 12.4 Mbps
Width : 1 920 pixels
Height : 1 040 pixels
Display aspect ratio : 16:9
Frame rate : 23.976 fps
Color space : YUV
Chroma subsampling : 4:2:0
Bit depth : 8 bits
Scan type : Progressive
Bits/(Pixel*Frame) : 0.260
Stream size : 8.05 GiB (79%)
Title : x264 | 1920x1040 | 16:9 | 12.4 Mbps | 23.976 fps
Writing library : x264 core 142 r2389 956c8d8
Encoding settings : cabac=1 / ref=4 / deblock=1:-3:-3 / analyse=0x3:0x113 / me=umh / subme=8 / psy=1 / psy_rd=1.00:0.00 / mixed_ref=1 / me_range=16 / chroma_me=1 / trellis=1 / 8x8dct=1 / cqm=0 / deadzone=21,11 / fast_pskip=1 / chroma_qp_offset=-2 / threads=12 / lookahead_threads=2 / sliced_threads=0 / nr=0 / decimate=1 / interlaced=0 / bluray_compat=0 / constrained_intra=0 / bframes=3 / b_pyramid=2 / b_adapt=2 / b_bias=0 / direct=3 / weightb=1 / open_gop=0 / weightp=2 / keyint=240 / keyint_min=24 / scenecut=40 / intra_refresh=0 / rc_lookahead=50 / rc=2pass / mbtree=1 / bitrate=12440 / ratetol=1.0 / qcomp=0.60 / qpmin=0 / qpmax=69 / qpstep=4 / cplxblur=20.0 / qblur=0.5 / ip_ratio=1.40 / aq=1:1.00
Language : English
Audio #1
ID : 2
Format : AC-3
Format/Info : Audio Coding 3
Mode extension : CM (complete main)
Codec ID : A_AC3
Duration : 1h 34mn
Bit rate mode : Constant
Bit rate : 160 Kbps
Channel(s) : 2 channels
Channel positions : Front: L R
Sampling rate : 48.0 KHz
Bit depth : 16 bits
Compression mode : Lossy
Delay relative to video : 900ms
Stream size : 108 MiB (1%)
Title : [DVO] AC3 2.0 | 16 bits | 48 KHz | 160 Kbps | mono
Language : Russian
Audio #2
ID : 3
Format : AC-3
Format/Info : Audio Coding 3
Mode extension : CM (complete main)
Codec ID : A_AC3
Duration : 1h 34mn
Bit rate mode : Constant
Bit rate : 192 Kbps
Channel(s) : 2 channels
Channel positions : Front: L R
Sampling rate : 48.0 KHz
Bit depth : 16 bits
Compression mode : Lossy
Delay relative to video : 900ms
Stream size : 130 MiB (1%)
Title : [VO] AC3 2.0 | 16 bits | 48 KHz | 192 Kbps | mono
Language : Russian
Audio #3
ID : 4
Format : DTS
Format/Info : Digital Theater Systems
Codec ID : A_DTS
Duration : 1h 34mn
Bit rate mode : Constant
Bit rate : 755 Kbps
Channel(s) : 1 channel
Channel positions : Front: C
Sampling rate : 48.0 KHz
Bit depth : 24 bits
Compression mode : Lossy
Stream size : 511 MiB (5%)
Title : [Feature] DTS 1.0 | 24 bits | 48 KHz | 755 Kbps | mono
Language : English
Audio #4
ID : 5
Format : DTS
Format/Info : Digital Theater Systems
Codec ID : A_DTS
Duration : 1h 34mn
Bit rate mode : Constant
Bit rate : 1 510 Kbps
Channel(s) : 2 channels
Channel positions : Front: L R
Sampling rate : 48.0 KHz
Bit depth : 24 bits
Compression mode : Lossy
Stream size : 1 023 MiB (10%)
Title : [Isolated Score: Dave Grusin] DTS 2.0 | 24 bits | 48 KHz | 1510 Kbps | stereo
Language : English
Audio #5
ID : 6
Format : DTS
Format/Info : Digital Theater Systems
Codec ID : A_DTS
Duration : 1h 34mn
Bit rate mode : Constant
Bit rate : 256 Kbps
Channel(s) : 2 channels
Channel positions : Front: L R
Sampling rate : 48.0 KHz
Bit depth : 24 bits
Compression mode : Lossy
Stream size : 174 MiB (2%)
Title : [Commentary: Andrea Marcovicci, Julie Kirgo & Nick Redman] DTS 2.0 | 24 bits | 48 KHz | 256 Kbps | stereo
Language : English
Text #1
ID : 7
Format : UTF-8
Codec ID : S_TEXT/UTF8
Codec ID/Info : UTF-8 Plain Text
Title : SubRip | Rus
Language : Russian
Text #2
ID : 8
Format : UTF-8
Codec ID : S_TEXT/UTF8
Codec ID/Info : UTF-8 Plain Text
Title : SubRip | Eng
Language : English
Text #3
ID : 9
Format : VobSub
Muxing mode : zlib
Codec ID : S_VOBSUB
Codec ID/Info : The same subtitle format used on DVDs
Title : VobSub | Eng
Language : English
Menu
00:00:00.000 : en:00:00:00.000
00:07:39.125 : en:00:07:39.125
00:17:03.105 : en:00:17:03.105
00:25:42.875 : en:00:25:42.875
00:32:43.545 : en:00:32:43.545
00:43:13.257 : en:00:43:13.257
00:51:08.482 : en:00:51:08.482
00:59:55.592 : en:00:59:55.592
01:06:22.478 : en:01:06:22.478
01:15:47.710 : en:01:15:47.710
01:24:51.962 : en:01:24:51.962
01:32:31.254 : en:01:32:31.254

Скриншоты

Сравнение с DVD


Сравнение с изданием на DVD выявило, что для Блюрей кадр был обрезан сверху и снизу для соответствия стандарту 16:9. В принципе, это обычная, хоть и малоприятная, практика издания т.н. "квадратных" фильмов на Блюрей ("Койянискаци", "Ничего не вижу, ничего не слышу" и пр.). Но есть одно "но" - на страничке фильма на IMDB утверждается, что фильм был снят на 35 мм. пленку с соотношением сторон 1,85:1. Получается, что на Блюрей был выпущен двойной обрезок оригинального кадра, который сначала урезали до соотношения 4:3 для ДВД (и сделали копию на пленке в этом соотношении), а потом с этой пленки был сделан трансфер на Блюрей с еще одним сопутствующим кропом (куда уж без него).

Сравнение того, что осталось от оригинального кадра после двух трансферов, конечно, если фильм действительно был снят в 1,85:1 (а судя по отсутствию "воздуха" и композиционным промахам в кадре обоих трансферов так оно и есть).
К такой печальной практике двойного кромсания кадра издатели фильмов прибегают не в первый раз, достаточно вспомнить фильм "9 с половиной недель", вернее то, что от него осталось на Блюрей.
-

Дополнительно

ВСЕ МОИ РАЗДАЧИ

_________________
Показать сообщения:    

Текущее время: Сегодня 19:12

Часовой пояс: GMT



Вы не можете начинать темы
Вы не можете отвечать на сообщения
Вы не можете редактировать свои сообщения
Вы не можете удалять свои сообщения
Вы не можете голосовать в опросах
Вы не можете прикреплять файлы к сообщениям
Вы не можете скачивать файлы