Важное объявление!
У Нас Все раздачи мультитрекерные, при нуле пиров в релизах, можете смело вставать на закачку!
Статистика раздачи
Размер:     |    Зарегистрирован:     |    Скачан:     |   
Нет
 
     
 
 
Автор Сообщение

HUNTER

Стаж:
5 лет
Сообщений:
67910

Репутация: 101

[+] [-]
Вне форума [Профиль] [ЛС]

Подполье против Абвера (4 серии из 4)
Год выпуска: 2010
Страна: Россия
Жанр: Документальный
Продолжительность: 4 x ~ 00:26:00
Перевод: Не требуется
Описание: Поверженный город должен был стать легкой добычей завоевателей, но превратился в ловушку, где на каждом шагу их поджидала смерть. Противостояние сильнейших разведывательных служб Третьего рейха и минских подпольщиков - драматичная история, над которой до сих пор спорят исследователи. Правда и ложь, предательство и героизм, тайное и явное. Хитроумные операции Абвера и недоверие Москвы. Имена, внесенные в списки героев и преданные забвению. Цикл фильмов с документальной достоверностью воссоздаёт малоизвестные эпизоды борьбы минского подполья против Абвера. Необычная стилистика погружает зрителя в атмосферу города несвободы - Минска времен оккупации.
Качество: SATRip
Формат: AVI
Видео: XviD, 640x480, (1.33:1), ~ 1600 kbps avg, 25 fps, 0.21 bit/pixel
Аудио: 48 kHz, MPEG Layer 3, 2 ch, ~128.00 kbps avg
Rip by shibay9

Список выпусков/серий

1 серия.
22 июня 1941 года в 04:30 утра Первому секретарю ЦК Белоруссии Пантелеймону Пономаренко позвонил командующий западным округом генерал армии Дмитрий Павлов. Германская армия открыла военные действия против наших войск. Через несколько дней штаб Западного фронта вместе с руководством компартии Белоруссии спешно покинули столицу и переместились в Могилев, семьи эвакуированы. 28 июня 1941 года на пятый день войны, пройдя более 300 километров, войска Вермахта оккупировали Минск. Уже на следующий день установлен комендантский час, огромное количество пленных согнаны в лагеря, вышел приказ о запрете советских радиоприёмников, в здании партийной школы разместился Абвер... В оккупированном Минске возникает подпольное сопротивление. Но не обходится и без предателей.
2 серия.
Январь 1942 года. Блицкриг не состоялся. Отбросив немецкие войска от Москвы Красная Армия перешла в наступление. В Москве создан Центральный штаб партизанского движения. Переиграв Берию и Хрущева, его возглавил Первый Секретарь ЦК ВКПБ Пантелеймон Пономаренко. В столице Белоруссии по инициативе снизу действуют более 50-ти подпольных групп. В отсутствие навыков ведения подпольной борьбы и без всякой связи с Центром, а так же в результате активных действий предателей Родины, подпольщики становятся легкой добычей Абвера и СД.
3 серия.
Второй год войны. Красная армия одержала решающие победы под Сталинградом и на Курской дуге и овладела стратегической инициативой. В Белоруссии, дезорганизуя немецкий тыл, действуют партизанские формирования. Из Москвы ими руководит Центральный штаб партизанского движения. Минский подпольный горком действует на базе отряда "Мстители". За последние полгода количество диверсий против фашистов резко увеличилось. Оккупационные войска постоянно несут потери. Сопротивление немецким властям оказывается повсеместно. В Минске Абвер объявил, что не может гарантировать безопасность немецким офицерам.
4 серия.
C декабря 1943 года Красная армия не прекращает попыток освободить Белоруссию. С помощью партизан-подпольщиков об этом практически знает все население оккупированных территорий. Движение сопротивления усиливается, растет количество диверсий. С Минске немцам и полиции появляться на улицах в одиночку не безопасно. Днем их убивают повсюду, даже в служебных кабинетах, вечером в казино и ресторанах, ночью прямо в постелях. Абвер проваливает одну операцию за другой, не хватает агентов и сил бороться с подпольем. Москва поддерживает подпольщиков всемерно. В Берлине распространилось мнение, что Абвер себя изжил. 3 июля 1944 года войска 3-го Белорусского фронта с боями овладели Минском. Вместе с Красной армией шли в Минск и партизаны. 16 июля в город вернулся Пантелеймон Пономаренко. В роли триумфатора он принимал парад партизан. Пономаренко приветливо улыбался, а в это время особисты трудились не покладая рук и по горячим следам составляли списки "правильных" и "неправильных" подпольщиков. "Правильными" считали тех, кого знал сам Пономаренко, остальным ещё много лет предстоит доказывать, что не были предателями, что так же как и армия сражались с врагом. Многие так и не доказали, и далеко не все дожили до своей реабилитации.

MediaInfo

General
Complete name : D:\Подполье против Абвера 2010 SATRip\1 серия.avi
Format : AVI
Format/Info : Audio Video Interleave
File size : 325 MiB
Duration : 26mn 6s
Overall bit rate : 1 739 Kbps
Writing application : VirtualDubMod 1.5.10.3 | www.virtualdub-fr.org || (build 2550/release)
Writing library : VirtualDubMod build 2550/release
Video
ID : 0
Format : MPEG-4 Visual
Format profile : Advanced Simple@L5
Format settings, BVOP : 2
Format settings, QPel : No
Format settings, GMC : No warppoints
Format settings, Matrix : Default (H.263)
Codec ID : XVID
Codec ID/Hint : XviD
Duration : 26mn 6s
Bit rate : 1 601 Kbps
Width : 640 pixels
Height : 480 pixels
Display aspect ratio : 4:3
Frame rate : 25.000 fps
Color space : YUV
Chroma subsampling : 4:2:0
Bit depth : 8 bits
Scan type : Progressive
Compression mode : Lossy
Bits/(Pixel*Frame) : 0.208
Stream size : 299 MiB (92%)
Writing library : XviD 64
Audio
ID : 1
Format : MPEG Audio
Format version : Version 1
Format profile : Layer 3
Codec ID : 55
Codec ID/Hint : MP3
Duration : 26mn 6s
Bit rate mode : Constant
Bit rate : 128 Kbps
Channel(s) : 2 channels
Sampling rate : 48.0 KHz
Compression mode : Lossy
Stream size : 23.9 MiB (7%)
Alignment : Aligned on interleaves
Interleave, duration : 40 ms (1.00 video frame)
Interleave, preload duration : 504 ms
Writing library : LAME3.98r
Encoding settings : -m s -V 4 -q 0 -lowpass 17 -b 128

Скриншоты


_________________
Показать сообщения:    

Текущее время: Сегодня 22:39

Часовой пояс: GMT



Вы не можете начинать темы
Вы не можете отвечать на сообщения
Вы не можете редактировать свои сообщения
Вы не можете удалять свои сообщения
Вы не можете голосовать в опросах
Вы не можете прикреплять файлы к сообщениям
Вы не можете скачивать файлы