Поднять якоря / Anchors Aweigh (Джордж Сидни / George Sidne) [1945, США, мюзикл, BDRip 1080p] MVO (ТК Домашний) + MVO (Светла) + Sub Eng + Original Eng :: Ивановский Торрент трекер
Важное объявление!
У Нас Все раздачи мультитрекерные, при нуле пиров в релизах, можете смело вставать на закачку!
Статистика раздачи
Размер:     |    Зарегистрирован:     |    Скачан:     |   
Нет
 
     
 
 
Автор Сообщение

HUNTER

Стаж:
4 года 11 месяцев
Сообщений:
66066

Репутация: 101

[+] [-]
Вне форума [Профиль] [ЛС]

Поднять якоря / Anchors Aweigh
Страна: США
Жанр: мюзикл
Год выпуска: 1945
Продолжительность: 02:19:34
Перевод 1: Профессиональный (многоголосый закадровый) ТК Домашний
Перевод 2: Профессиональный (многоголосый закадровый) Светла
Cубтитры: русские (только на песни), английские
Оригинальная аудиодорожка: английский
Режиссер: Джордж Сидни / George Sidne
В ролях: Джин Келли, Кэтрин Грэйсон, Фрэнк Синатра, Хосе Итурби, Дин Стокуэлл, Памела Бриттон, Билли Гилберт, Генри О`Нилл, Карлос Рамирес
Описание: 1945 год американский флот возвращается домой. На борту авианосца два бравых матроса награждены прогулкой в город. Парни решают «покутить на всю катушку».
Джозеф Броди, и Кларенс Дулиттл уверенны, что их вояжу ничто не станет помехой, но не тут то было. Прямо с первых минут их планы начинают рушиться как карточный домик, а виной тому семилетний ребенок, который бежал из дома тетки ради службы на флоте.
Он был пойман полицией и доставлен в участок. Полицейские не в силах совладать с беглецом и зовут на помощь моряков, которые моментально налаживают контакт с парнишкой и соглашаются помочь полиции — сопроводить «гуляку» домой к тетушке.
Герои даже и не предполагают, что тётей окажется весьма миловидная брюнетка двадцати лет, ради которой они совершат многосмешных и глупых поступков…
Won 1 Oscar. Another 4 nominations
Доп. информация: К BDRip 1080p, скачанному с забугорного трекера, добавлено два русских закадровых перевода и субтитры с этой раздачи, спасибо olegsa.
Используемый софт: MKVtool, BeSweet, Sony Vegas 10
Сэмпл: http://multi-up.com/1049143
Тип релиза: BDRip 1080p
Контейнер: MKV
Видео: AVC, 10,4 Мбит/сек, 1488 x 1080, 23.976 fps
Аудио: Russian (Dolby AC3, 2 ch), 192 Kbp - ТК Домашний
Аудио 2: Russian (Dolby AC3, 2 ch), 192 Kbp - Светла
Аудио 3: English, DTS (1 ch), 768 Кбит/сек, 48 kHz
Формат субтитров: UTF-8

MediaInfo

Matroska
Версия формата : Version 2
Размер файла : 11,3 Гбайт
Продолжительность : 2 ч. 19 м.
Общий поток : 11,6 Мбит/сек
Дата кодирования : UTC 2015-05-12 14:59:35
Программа кодирования : mkvmerge v7.5.0 ('Glass Culture') 32bit built on Jan 4 2015 16:37:25
Библиотека кодирования : libebml v1.3.1 + libmatroska v1.4.2
DURATION : 02:12:11.306000000
NUMBER_OF_FRAMES : 147
NUMBER_OF_BYTES : 7617
_STATISTICS_WRITING_APP : mkvmerge v7.5.0 ('Glass Culture') 32bit built on Jan 4 2015 16:37:25
_STATISTICS_WRITING_DATE_UTC : 2015-05-12 14:59:35
_STATISTICS_TAGS : BPS DURATION NUMBER_OF_FRAMES NUMBER_OF_BYTES
Видео
Идентификатор : 1
Формат : AVC
Формат/Информация : Advanced Video Codec
Профиль формата : High@L4.1
Параметр CABAC формата : Да
Параметр ReFrames формата : 5 кадров
Идентификатор кодека : V_MPEG4/ISO/AVC
Продолжительность : 2 ч. 19 м.
Битрейт : 10,4 Мбит/сек
Ширина : 1488 пикселей
Высота : 1080 пикселей
Соотношение сторон : 1,378
Режим частоты кадров : Постоянный
Частота кадров : 23,976 кадра/сек
Цветовое пространство : YUV
Субдискретизация насыщенности : 4:2:0
Битовая глубина : 8 бит
Тип развёртки : Прогрессивная
Бит/(Пиксели*Кадры) : 0.271
Размер потока : 9,96 Гбайт (88%)
Библиотека кодирования : x264 core 146 r2538 121396c
Настройки программы : cabac=1 / ref=5 / deblock=1:-3:-3 / analyse=0x3:0x113 / me=umh / subme=8 / psy=1 / psy_rd=1.00:0.00 / mixed_ref=1 / me_range=16 / chroma_me=1 / trellis=1 / 8x8dct=1 / cqm=0 / deadzone=21,11 / fast_pskip=1 / chroma_qp_offset=-2 / threads=18 / lookahead_threads=3 / sliced_threads=0 / nr=0 / decimate=1 / interlaced=0 / bluray_compat=0 / constrained_intra=0 / bframes=3 / b_pyramid=2 / b_adapt=2 / b_bias=0 / direct=3 / weightb=1 / open_gop=0 / weightp=2 / keyint=240 / keyint_min=24 / scenecut=40 / intra_refresh=0 / rc_lookahead=50 / rc=2pass / mbtree=1 / bitrate=10445 / ratetol=1.0 / qcomp=0.60 / qpmin=0 / qpmax=69 / qpstep=4 / cplxblur=20.0 / qblur=0.5 / ip_ratio=1.40 / aq=1:1.00
Язык : Russian
Default : Да
Forced : Нет
DURATION : 02:19:34.450000000
NUMBER_OF_FRAMES : 200786
NUMBER_OF_BYTES : 10933543669
_STATISTICS_WRITING_APP : mkvmerge v7.5.0 ('Glass Culture') 32bit built on Jan 4 2015 16:37:25
_STATISTICS_WRITING_DATE_UTC : 2015-05-12 14:59:35
_STATISTICS_TAGS : BPS DURATION NUMBER_OF_FRAMES NUMBER_OF_BYTES
Аудио #1
Идентификатор : 2
Формат : AC-3
Формат/Информация : Audio Coding 3
Расширение режима : CM (complete main)
Параметр Endianness формата : Big
Идентификатор кодека : A_AC3
Продолжительность : 2 ч. 19 м.
Вид битрейта : Постоянный
Битрейт : 192 Кбит/сек
Каналы : 2 канала
Расположение каналов : Front: L R
Частота : 48,0 КГц
Битовая глубина : 16 бит
Метод сжатия : С потерями
Размер потока : 192 Мбайт (2%)
Заголовок : Russian AC3 192 Kbps
Язык : Russian
Default : Да
Forced : Нет
Аудио #2
Идентификатор : 3
Формат : AC-3
Формат/Информация : Audio Coding 3
Расширение режима : CM (complete main)
Параметр Endianness формата : Big
Идентификатор кодека : A_AC3
Продолжительность : 2 ч. 19 м.
Вид битрейта : Постоянный
Битрейт : 192 Кбит/сек
Каналы : 2 канала
Расположение каналов : Front: L R
Частота : 48,0 КГц
Битовая глубина : 16 бит
Метод сжатия : С потерями
Размер потока : 192 Мбайт (2%)
Заголовок : Russian AC3 192 Kbps
Язык : Russian
Default : Нет
Forced : Нет
Аудио #3
Идентификатор : 4
Формат : DTS
Формат/Информация : Digital Theater Systems
Режим : 16
Параметр Endianness формата : Big
Идентификатор кодека : A_DTS
Продолжительность : 2 ч. 19 м.
Вид битрейта : Постоянный
Битрейт : 768 Кбит/сек
Каналы : 1 канал
Расположение каналов : Front: C
Частота : 48,0 КГц
Битовая глубина : 24 бит
Метод сжатия : С потерями
Размер потока : 767 Мбайт (7%)
Язык : English
Default : Нет
Forced : Нет
Текст #1
Идентификатор : 5
Формат : UTF-8
Идентификатор кодека : S_TEXT/UTF8
Идентификатор кодека/Информация : UTF-8 Plain Text
Язык : Russian
Default : Да
Forced : Нет
Текст #2
Идентификатор : 6
Формат : UTF-8
Идентификатор кодека : S_TEXT/UTF8
Идентификатор кодека/Информация : UTF-8 Plain Text
Заголовок : SDH
Язык : English
Default : Нет
Forced : Нет
Текст #3
Идентификатор : 7
Формат : UTF-8
Идентификатор кодека : S_TEXT/UTF8
Идентификатор кодека/Информация : UTF-8 Plain Text
Язык : English
Default : Нет
Forced : Нет
Меню
00:00:00.000 : en:00:00:00.000
00:01:29.089 : en:00:01:29.089
00:02:41.161 : en:00:02:41.161
00:04:24.264 : en:00:04:24.264
00:08:09.948 : en:00:08:09.948
00:10:33.466 : en:00:10:33.466
00:15:53.536 : en:00:15:53.536
00:21:29.497 : en:00:21:29.497
00:23:13.809 : en:00:23:13.809
00:26:44.728 : en:00:26:44.728
00:31:14.122 : en:00:31:14.122
00:36:15.590 : en:00:36:15.590
00:39:48.011 : en:00:39:48.011
00:44:19.156 : en:00:44:19.156
00:50:05.836 : en:00:50:05.836
00:53:46.390 : en:00:53:46.390
00:59:33.320 : en:00:59:33.320
01:05:26.339 : en:01:05:26.339
01:07:43.059 : en:01:07:43.059
01:10:55.251 : en:01:10:55.251
01:14:27.088 : en:01:14:27.088
01:16:02.475 : en:01:16:02.475
01:19:10.663 : en:01:19:10.663
01:24:16.093 : en:01:24:16.093
01:27:45.260 : en:01:27:45.260
01:29:41.126 : en:01:29:41.126
01:33:12.587 : en:01:33:12.587
01:37:09.866 : en:01:37:09.866
01:42:25.514 : en:01:42:25.514
01:46:52.823 : en:01:46:52.823
01:52:58.480 : en:01:52:58.480
01:55:04.731 : en:01:55:04.731
01:56:50.253 : en:01:56:50.253
02:04:24.290 : en:02:04:24.290
02:07:57.128 : en:02:07:57.128
02:12:44.957 : en:02:12:44.957
02:16:16.335 : en:02:16:16.335
02:18:48.904 : en:02:18:48.904

Скриншоты











_________________
Показать сообщения:    

Текущее время: Сегодня 18:49

Часовой пояс: GMT



Вы не можете начинать темы
Вы не можете отвечать на сообщения
Вы не можете редактировать свои сообщения
Вы не можете удалять свои сообщения
Вы не можете голосовать в опросах
Вы не можете прикреплять файлы к сообщениям
Вы не можете скачивать файлы