Важное объявление!
У Нас Все раздачи мультитрекерные, при нуле пиров в релизах, можете смело вставать на закачку!
 
Автор Сообщение

HUNTER

Стаж:
4 года 5 месяцев
Сообщений:
60886

Репутация: 101

[+] [-]
Вне форума [Профиль] [ЛС]

Поднять якоря / Anchors Aweigh
Страна: США
Жанр: мюзикл
Год выпуска: 1945
Продолжительность: 02:19:34
Перевод 1: Профессиональный (многоголосый закадровый) - ТК Домашний
Перевод 2: Профессиональный (многоголосый закадровый) - Светла
Cубтитры: русские - только на песни, английские, испанские...
Оригинальная аудиодорожка: английский
Режиссер: Джордж Сидни / George Sidne
В ролях: Джин Келли, Кэтрин Грэйсон, Фрэнк Синатра, Хосе Итурби, Дин Стокуэлл, Памела Бриттон, Билли Гилберт, Генри О`Нилл, Карлос Рамирес
Описание: 1945 год американский флот возвращается домой. На борту авианосца два бравых матроса награждены прогулкой в город. Парни решают «покутить на всю катушку».
Джозеф Броди, и Кларенс Дулиттл уверенны, что их вояжу ничто не станет помехой, но не тут то было. Прямо с первых минут их планы начинают рушиться как карточный домик, а виной тому семилетний ребенок, который бежал из дома тетки ради службы на флоте.
Он был пойман полицией и доставлен в участок. Полицейские не в силах совладать с беглецом и зовут на помощь моряков, которые моментально налаживают контакт с парнишкой и соглашаются помочь полиции — сопроводить «гуляку» домой к тетушке.
Герои даже и не предполагают, что тётей окажется весьма миловидная брюнетка двадцати лет, ради которой они совершат многосмешных и глупых поступков…
Won 1 Oscar. Another 4 nominations
Доп. информация: К BDRemux 1080p от Warner Bros., скачанному с забугорного трекера, добавлено два русских закадровых перевода и субтитры с этой раздачи, спасибо olegsa.
Сохранены оригинальные чаптеры как на Blu-ray.
Используемый софт: MKVtool, BeSweet, Sony Vegas 10
Сэмпл: http://multi-up.com/1050327
Тип релиза: BDRemux 1080p
Контейнер: MKV
Видео: AVC, 17956 kbps, 1920 x 1080, 23.976 fps
Аудио 1: Russian (Dolby AC3, 2 ch), 48 kHz, 192 kbps - ТК Домашний
Аудио 2: Russian (Dolby AC3, 2 ch), 48 kHz, 192 kbps - Светла
Аудио 3: English / DTS-HD Master Audio / 1.0 / 48 kHz / 1044 kbps / 24-bit (DTS Core: 1.0 / 48 kHz / 768 kbps / 24-bit)
Формат субтитров: UTF-8, PGS

MediaInfo

Matroska
Версия формата : Version 2
Размер файла : 19,0 Гбайт
Продолжительность : 2 ч. 19 м.
Режим общего битрейта : Переменный
Общий поток : 19,5 Мбит/сек
Дата кодирования : UTC 2015-05-25 14:35:38
Программа кодирования : mkvmerge v7.5.0 ('Glass Culture') 32bit built on Jan 4 2015 16:37:25
Библиотека кодирования : libebml v1.3.1 + libmatroska v1.4.2
DURATION : 02:12:11.306000000
NUMBER_OF_FRAMES : 147
NUMBER_OF_BYTES : 7617
_STATISTICS_WRITING_APP : mkvmerge v7.5.0 ('Glass Culture') 32bit built on Jan 4 2015 16:37:25
_STATISTICS_WRITING_DATE_UTC : 2015-05-25 14:35:38
_STATISTICS_TAGS : BPS DURATION NUMBER_OF_FRAMES NUMBER_OF_BYTES
Видео
Идентификатор : 1
Формат : AVC
Формат/Информация : Advanced Video Codec
Профиль формата : High@L4.1
Параметр CABAC формата : Да
Параметр ReFrames формата : 2 кадра
Параметр GOP формата : M=1, N=10
Идентификатор кодека : V_MPEG4/ISO/AVC
Продолжительность : 2 ч. 19 м.
Вид битрейта : Переменный
Ширина : 1920 пикселей
Высота : 1080 пикселей
Соотношение сторон : 16:9
Режим частоты кадров : Постоянный
Частота кадров : 23,976 кадра/сек
Цветовое пространство : YUV
Субдискретизация насыщенности : 4:2:0
Битовая глубина : 8 бит
Тип развёртки : Прогрессивная
Язык : Russian
Default : Да
Forced : Нет
Аудио #1
Идентификатор : 2
Формат : AC-3
Формат/Информация : Audio Coding 3
Расширение режима : CM (complete main)
Параметр Endianness формата : Big
Идентификатор кодека : A_AC3
Продолжительность : 2 ч. 19 м.
Вид битрейта : Постоянный
Битрейт : 192 Кбит/сек
Каналы : 2 канала
Расположение каналов : Front: L R
Частота : 48,0 КГц
Битовая глубина : 16 бит
Метод сжатия : С потерями
Размер потока : 192 Мбайт (1%)
Заголовок : Russian AC3 192 Kbps
Язык : Russian
Default : Да
Forced : Нет
Аудио #2
Идентификатор : 3
Формат : AC-3
Формат/Информация : Audio Coding 3
Расширение режима : CM (complete main)
Параметр Endianness формата : Big
Идентификатор кодека : A_AC3
Продолжительность : 2 ч. 19 м.
Вид битрейта : Постоянный
Битрейт : 192 Кбит/сек
Каналы : 2 канала
Расположение каналов : Front: L R
Частота : 48,0 КГц
Битовая глубина : 16 бит
Метод сжатия : С потерями
Размер потока : 192 Мбайт (1%)
Заголовок : Russian AC3 192 Kbps
Язык : Russian
Default : Нет
Forced : Нет
Аудио #3
Идентификатор : 4
Формат : DTS
Формат/Информация : Digital Theater Systems
Профиль формата : MA / Core
Режим : 16
Параметр Endianness формата : Big
Идентификатор кодека : A_DTS
Продолжительность : 2 ч. 19 м.
Вид битрейта : Переменный
Битрейт : Неизвестно / 768 Кбит/сек
Каналы : 1 канал
Расположение каналов : Front: C
Частота : 48,0 КГц
Битовая глубина : 24 бит
Метод сжатия : Без потерь / Lossy
Язык : English
Default : Нет
Forced : Нет
Текст #1
Идентификатор : 5
Формат : UTF-8
Идентификатор кодека : S_TEXT/UTF8
Идентификатор кодека/Информация : UTF-8 Plain Text
Язык : Russian
Default : Да
Forced : Нет
Текст #2
Идентификатор : 6
Формат : PGS
Режим смешивания : zlib
Идентификатор кодека : S_HDMV/PGS
Идентификатор кодека/Информация : The same subtitle format used on BDs/HD-DVDs
Язык : English
Default : Нет
Forced : Нет
Текст #3
Идентификатор : 7
Формат : PGS
Режим смешивания : zlib
Идентификатор кодека : S_HDMV/PGS
Идентификатор кодека/Информация : The same subtitle format used on BDs/HD-DVDs
Язык : French
Default : Нет
Forced : Нет
Текст #4
Идентификатор : 8
Формат : PGS
Режим смешивания : zlib
Идентификатор кодека : S_HDMV/PGS
Идентификатор кодека/Информация : The same subtitle format used on BDs/HD-DVDs
Язык : Spanish
Default : Нет
Forced : Нет
Текст #5
Идентификатор : 9
Формат : PGS
Режим смешивания : zlib
Идентификатор кодека : S_HDMV/PGS
Идентификатор кодека/Информация : The same subtitle format used on BDs/HD-DVDs
Язык : Spanish
Default : Нет
Forced : Нет
Текст #6
Идентификатор : 10
Формат : PGS
Режим смешивания : zlib
Идентификатор кодека : S_HDMV/PGS
Идентификатор кодека/Информация : The same subtitle format used on BDs/HD-DVDs
Язык : Japanese
Default : Нет
Forced : Нет
Текст #7
Идентификатор : 11
Формат : PGS
Режим смешивания : zlib
Идентификатор кодека : S_HDMV/PGS
Идентификатор кодека/Информация : The same subtitle format used on BDs/HD-DVDs
Язык : Spanish
Default : Нет
Forced : Нет
Меню
00:00:00.000 : en:
00:01:29.088 : en:
00:02:41.161 : en:
00:04:24.264 : en:
00:08:09.947 : en:
00:10:33.466 : en:
00:15:53.535 : en:
00:21:29.496 : en:
00:23:13.809 : en:
00:26:44.728 : en:
00:31:14.122 : en:
00:36:15.590 : en:
00:39:48.010 : en:
00:44:19.156 : en:
00:50:05.836 : en:
00:53:46.389 : en:
00:59:33.319 : en:
01:05:26.339 : en:
01:07:43.058 : en:
01:10:55.251 : en:
01:14:27.087 : en:
01:16:02.474 : en:
01:19:10.662 : en:
01:24:16.092 : en:
01:27:45.260 : en:
01:29:41.125 : en:
01:33:12.586 : en:
01:37:09.865 : en:
01:42:25.514 : en:
01:46:52.823 : en:
01:52:58.480 : en:
01:55:04.731 : en:
01:56:50.253 : en:
02:04:24.290 : en:
02:07:57.127 : en:
02:12:44.957 : en:
02:16:16.334 : en:
02:18:48.903 : en:

Скриншоты











_________________
Показать сообщения:    

Текущее время: Сегодня 12:09

Часовой пояс: GMT



Вы не можете начинать темы
Вы не можете отвечать на сообщения
Вы не можете редактировать свои сообщения
Вы не можете удалять свои сообщения
Вы не можете голосовать в опросах
Вы не можете прикреплять файлы к сообщениям
Вы не можете скачивать файлы
Наши партнеры: интернет магазин Ивановского трикотажа textilla.ru