Ивановский Торрент трекер
Яндекс.Погода
 

[Цитировать]
HUNTER

Подношение / Вера Анны Уотерс / The Faith of Anna Waters / The Offering
Страна: Сингапур, США
Студия: Boku Films Pte Limited, Boku Films, PEP Pictures
Жанр: ужасы, триллер, драма, детектив
Год выпуска: 2016
Продолжительность: 01:35:30
Перевод 1: Любительский (многоголосый закадровый) den904, DeadSno, Izanami, Agent Smith по переводу перевод [triumphant]
Перевод 2: Одноголосый закадровый Хихикающий доктор
Cубтитры: английские, английские полные
Оригинальная аудиодорожка: английский
Режиссер: Келвин Тонг / Kelvin Tong
В ролях: Мэттью Сеттл, Элизабет Райс, Памелин Чи, Элизабет Лазан, Джейми Онг, Адина Херц, Кхенг Хуа Тан, Адриан Пэнг, Колин Боргонон, Райанн Конди и др.
Описание: Когда Джейми узнает, что её сестра умерла при загадочных обстоятельствах, она уезжает в Сингапур в поисках истины. По прибытии она обнаруживает несколько смертельных случаев, схожих с тем, что случилось с её сестрой.
II Сэмпл II IMDB II
Релиз группа:

Доп. информация:
Многоголоска собрана с голоса.
Полные английские субтитры найдены в сети и подогнаны под субтитры BD
Тип релиза: BDRemux 1080p
Контейнер: MKV
Видео: AVC / 1920x1080 / 16:9 / 24.0fps / 27500Kbps / High@L4.1
Аудио 1: DTS-HD MA / 48.0 KHz / 6ch / 1960kbps / 16bit (DTS Core 48.0 KHz / 6ch / 1509kbps / 16bit) Rus / MVO
Аудио 2: AC3 / 48.0 KHz / 2ch. / 192kbps / Rus / VO / Хихикающий доктор
Аудио 3: DTS-HD MA / 96.0 KHz / 6ch / 3977kbps / 24bit (DTS Core 48.0 KHz / 6ch / 1509kbps / 24bit) Eng
Формат субтитров: softsub (SRT)

MediaInfo

Общее
Уникальный идентификатор : 183910809554865803767989060758490235372 (0x8A5BEEFB493D1C4BBA756F6C2892C1EC)
Полное имя : E:\!_HD\temp\The.Faith.of.Anna.Waters.BDRemux.1080p_by_vedigo.mkv
Формат : Matroska
Версия формата : Version 4 / Version 2
Размер файла : 22,4 Гбайт
Продолжительность : 1 ч. 35 м.
Режим общего битрейта : Переменный
Общий поток : 33,6 Мбит/сек
Название фильма : The.Faith.of.Anna.Waters.BDRemux.1080p_by_vedigo
Дата кодирования : UTC 2016-08-24 00:44:18
Программа кодирования : mkvmerge v9.4.0 ('Knurl') 64bit
Библиотека кодирования : libebml v1.3.4 + libmatroska v1.4.5
Видео
Идентификатор : 1
Формат : AVC
Формат/Информация : Advanced Video Codec
Профиль формата : High@L4.1
Параметр CABAC формата : Да
Параметр ReFrames формата : 4 кадра
Параметр GOP формата : M=3, N=24
Идентификатор кодека : V_MPEG4/ISO/AVC
Продолжительность : 1 ч. 35 м.
Вид битрейта : Переменный
Битрейт : 27,5 Мбит/сек
Максимальный битрейт : 37,0 Мбит/сек
Ширина : 1920 пикселей
Высота : 1080 пикселей
Соотношение сторон : 16:9
Режим частоты кадров : Постоянный
Частота кадров : 24,000 кадра/сек
Стандарт вещания : NTSC
Цветовое пространство : YUV
Субдискретизация насыщенности : 4:2:0
Битовая глубина : 8 бит
Тип развёртки : Прогрессивная
Бит/(Пиксели*Кадры) : 0.552
Размер потока : 18,3 Гбайт (82%)
Заголовок : The.Faith.of.Anna.Waters.BDRemux.1080p_by_vedigo
Default : Да
Forced : Нет
Цветовой диапазон : Limited
Основные цвета : BT.709
Характеристики трансфера : BT.709
Коэффициенты матрицы : BT.709
Аудио #1
Идентификатор : 2
Формат : DTS
Формат/Информация : Digital Theater Systems
Профиль формата : MA / Core
Режим : 16
Параметр Endianness формата : Big
Идентификатор кодека : A_DTS
Продолжительность : 1 ч. 35 м.
Вид битрейта : Переменный / Постоянный
Битрейт : 1960 Кбит/сек / 1509 Кбит/сек
Каналы : 6 каналов
Расположение каналов : Front: L C R, Side: L R, LFE
Частота : 48,0 КГц
Частота кадров : 93,750 кадра/сек (512 spf)
Битовая глубина : 16 бит
Метод сжатия : Без потерь / Lossy
Размер потока : 1,31 Гбайт (6%)
Заголовок : MVO
Язык : Russian
Default : Да
Forced : Нет
Аудио #2
Идентификатор : 3
Формат : AC-3
Формат/Информация : Audio Coding 3
Расширение режима : CM (complete main)
Параметр Endianness формата : Big
Идентификатор кодека : A_AC3
Продолжительность : 1 ч. 35 м.
Вид битрейта : Постоянный
Битрейт : 192 Кбит/сек
Каналы : 2 канала
Расположение каналов : Front: L R
Частота : 48,0 КГц
Частота кадров : 31,250 кадров/сек (1536 spf)
Метод сжатия : С потерями
Размер потока : 131 Мбайт (1%)
Заголовок : VO @ Хихикающий доктор
Язык : Russian
Default : Нет
Forced : Нет
Аудио #3
Идентификатор : 4
Формат : DTS
Формат/Информация : Digital Theater Systems
Профиль формата : MA / Core
Режим : 16
Параметр Endianness формата : Big
Идентификатор кодека : A_DTS
Продолжительность : 1 ч. 35 м.
Вид битрейта : Переменный / Постоянный
Битрейт : 3977 Кбит/сек / 1509 Кбит/сек
Каналы : 6 каналов
Расположение каналов : Front: L C R, Side: L R, LFE
Частота : 96,0 КГц / 48,0 КГц
Частота кадров : 93,750 кадра/сек (512 spf)
Битовая глубина : 24 бит
Метод сжатия : Без потерь / Lossy
Размер потока : 2,65 Гбайт (12%)
Заголовок : Original
Язык : English
Default : Нет
Forced : Нет
Текст #1
Идентификатор : 5
Формат : UTF-8
Идентификатор кодека : S_TEXT/UTF8
Идентификатор кодека/Информация : UTF-8 Plain Text
Продолжительность : 1 ч. 31 м.
Битрейт : 30 бит/сек
Count of elements : 928
Размер потока : 20,3 Кбайт (0%)
Заголовок : Subtitle eng [BD]
Язык : English
Default : Нет
Forced : Нет
Текст #2
Идентификатор : 6
Формат : UTF-8
Идентификатор кодека : S_TEXT/UTF8
Идентификатор кодека/Информация : UTF-8 Plain Text
Продолжительность : 1 ч. 31 м.
Битрейт : 35 бит/сек
Count of elements : 843
Размер потока : 24,0 Кбайт (0%)
Заголовок : Subtitle eng [Full]
Язык : English
Default : Нет
Forced : Нет
Меню
00:00:00.000 : en:00:00:00.000
00:06:40.208 : en:00:06:40.208
00:13:57.083 : en:00:13:57.083
00:24:36.458 : en:00:24:36.458
00:31:27.125 : en:00:31:27.125
00:37:09.667 : en:00:37:09.667
00:47:54.458 : en:00:47:54.458
00:56:10.208 : en:00:56:10.208
01:03:49.208 : en:01:03:49.208
01:11:00.875 : en:01:11:00.875
01:20:07.083 : en:01:20:07.083
01:30:23.875 : en:01:30:23.875

Скриншоты


Показать сообщения:    

Текущее время: 16-Окт 21:16

Часовой пояс: UTC - 1


Вы не можете начинать темы
Вы не можете отвечать на сообщения
Вы не можете редактировать свои сообщения
Вы не можете удалять свои сообщения
Вы не можете голосовать в опросах
Вы не можете прикреплять файлы к сообщениям
Вы не можете скачивать файлы

!ВНИМАНИЕ!
Сайт не предоставляет электронные версии произведений, а занимается лишь коллекционированием и каталогизацией ссылок, присылаемых и публикуемых на форуме нашими читателями. Если вы являетесь правообладателем какого-либо представленного материала и не желаете, чтобы ссылка на него находилась в нашем каталоге, свяжитесь с нами, и мы незамедлительно удалим ее. Файлы для обмена на трекере предоставлены пользователями сайта, и администрация не несет ответственности за их содержание. Просьба не заливать файлы, защищенные авторскими правами, а также файлы нелегального содержания!