Важное объявление!
У Нас Все раздачи мультитрекерные, при нуле пиров в релизах, можете смело вставать на закачку!
 
Автор Сообщение

димитри37

Стаж:
3 года 10 месяцев
Сообщений:
1237

Репутация: 127

[+] [-]
Вне форума [Профиль] [ЛС]

Подкидыш
Жанр: комедия
Год выпуска: 1939
Продолжительность: 01:10:03
Режиссёр: Татьяна Лукашевич
В ролях: Вероника Лебедева, Фаина Раневская, Петр Репнин, Ростислав Плятт, Рина Зелёная, Ольга Жизнева, Виктор Громов, Татьяна Барышева, Эля Быковская, Дима Глухов, Витя Бойко, Андрей Старостин, Станислав Леута, Николай Арский (Андреев), Иван Лобызовский, Николай Юдин, Фёдор Одиноков, Лёва Аннинский, Лев Иванов
Описание: Мама поехала снимать дачу на лето, оставив маленькую Наташу под присмотром старшего брата Юры. Юра строго приказал Наташе спать до двух часов. Тут раздался звонок в дверь, и к брату пришли в гости мальчик и девочка. Они настолько увлеклись обсуждением своих пионерских поручений, что не заметили, как Наташа, немного поплакав, оделась, ушла из квартиры на улицу - и потерялась в большом городе, потому что номер квартиры и "звонить два раза" она уже выучила, а вот название улицы и номер дома, где живет, - еще нет...
Доп. информация:
Сценарий: Агния Барто, Рина Зелёная
Оператор: Семён Шейнин
Художник: Василий Комарденков
Композитор: Николай Крюков
Ограничения на просмотр: для любой зрительской аудитории

Качество видео: DVDRip
Формат видео: AVI
Видео: 704x528 (1.33:1), 25 fps, XviD 64, 2398 kbps avg, 0.26 bit/pixel
Аудио 1: 48 kHz, AC3 Dolby Digital, 3/2 (L,C,R,l,r) + LFE ch, 384 kbps
Аудио 2: 48 kHz, AC3 Dolby Digital, 2/0 (L,R) ch, 192 kbps

Афиша

Интересные факты

  • В годы Великой Отечественной войны негатив фильма погиб во время бомбардировок. В Госфильмофонде СССР сохранилась позитивная копия, которая в конце 1950-х годов подверглась небольшим купюрам. В 1988 году фильм отреставрировали и снова выпустили в прокат. Некоторые сцены и музыка были переозвучены, кадры с памятником Сталину на ВСХВ удалены, а общее качество звука оказалось невысоким даже по сравнению с оригиналом 1939 года. Для колоризации, выполненной в 2010 году, был выбран частично переозвученный вариант 1988 года с новыми титрами и купюрами.
  • Никто из детей, сыгравших в фильме, в кино более не снимался. Вероника Лебедева, сыгравшая Наташу, после замужества сменила фамилию на Синицына и в 1970-е годы работала редактором и рецензентом в ряде московских издательств, затем преподавала английский язык; в настоящее время на пенсии, проживает в Москве. Дмитрий Глухов (Юра) умер в 2006 году. Судьба Элины Быковской (Нина) неизвестна. По некоторым данным, во время войны 15-летняя Элина была вывезена из Москвы на эвакопоезде. Однако, состав попал под бомбёжку. По одной версии, Элина погибла при этой бомбёжке. По другой версии, Элина попала в партизанский отряд и погибла в одном из боёв.
  • В 2010 году состоялся показ колоризованных версий трёх классических советских комедий — «Волга-Волга», «Весёлые ребята» и «Подкидыш». Работы по колоризации были проведены в Лос-Анджелесе по заказу «Первого канала».
  • В эпизодах, где Наташа подходит к продавцу воздушных шаров и знакомится с детьми из детского садика, можно увидеть панораму Чистых прудов, в других сценах показаны улица Горького, начало Ленинского проспекта (который тогда назывался Большой Калужской улицей), ВСХВ и Большая Ростокинская (ныне - ВВЦ и проспект Мира), Манежная площадь, угол Моховой и Коминтерна (Воздвиженки). В кадрах фильма можно увидеть весь московский транспорт довоенных лет — автомобили ГАЗ-М1, ЗиС-101, ГАЗ-АА, автобусы ЗИС-8 и ЗИС-16, троллейбус ЯТБ-3, трамвайный вагон БФ, а также вестибюль метро «Площадь Свердлова» («Театральная»).
  • Холостяк-геолог (Ростислав Плятт) кормит Наташу маринованными огурцами и консервами из крабов, которые в 1930-е годы были весьма популярным продуктом питания и не считались деликатесом.
  • В эпизоде со встречей футбольной команды снимались настоящие футболисты московского «Спартака» — Андрей Старостин и Станислав Леута.
  • В роли мальчика, который хочет быть «танкистом, доктором, а по выходным дням — пожарной машиной», снялся будущий литературовед Лев Аннинский.

Чтобы помнили...

Редакционным советом английской энциклопедии «Кто есть кто» («Who is who») она включена в десятку самых выдающихся актрис ХХ века, не сыграв при этом в кино ни одной главной роли. Королева эпизода, из незначительных, проходных сценок делавшая шедевры. Вот и с "Подкидышем" - четвертым фильмом в кинокарьере Фаины Георгиевны Раневской - произошло ровно то же самое. Второстепенная роль - и всесоюзная известность, мальчишки, бегающие за ней по улице с воплями: "Муля, не нервируй меня!.." Эту фразу придумала сама Раневская. А потом всю жизнь буквально ненавидела роль, принесшую ей такую популярность...

О звуке

Обе звуковые дорожки представляют собой отреставрированный и частично переозвученный вариант 1988 года. Обычно переозвучание мне не очень нравится, однако, в данном случае, лично на мой персональный слух, всё выполнено достаточно качественно. Тем более, что хорошо знакомые голоса любимых актеров - Фаины Раневской, Ростислава Плятта, Рины Зелёной - остались неизмененными.

MediaInfo

Полное имя : Подкидыш.avi
Формат : AVI
Формат/Информация : Audio Video Interleave
Размер файла : 1,46 Гбайт
Продолжительность : 1 ч. 10 м.
Общий поток : 2982 Кбит/сек
Программа кодирования : VirtualDubMod 1.5.10.3 (build 2550/release)
Библиотека кодирования : VirtualDubMod build 2550/release
Видео
Идентификатор : 0
Формат : MPEG-4 Visual
Профиль формата : Advanced Simple@L5
Параметр BVOP формата : 2
Параметр QPel формата : Нет
Параметр GMC формата : Без точки перехода
Параметр матрицы формата : Выборочная
Идентификатор кодека : XVID
Идентификатор кодека/Подсказка : XviD
Продолжительность : 1 ч. 10 м.
Битрейт : 2400 Кбит/сек
Ширина : 704 пикселя
Высота : 528 пикселей
Соотношение сторон : 4:3
Частота кадров : 25,000 кадров/сек
Цветовое пространство : YUV
Субдискретизация насыщенности : 4:2:0
Битовая глубина : 8 бит
Тип развёртки : Прогрессивная
Метод сжатия : С потерями
Бит/(Пиксели*Кадры) : 0.258
Размер потока : 1,17 Гбайт (80%)
Библиотека кодирования : XviD 64
Аудио #1
Идентификатор : 1
Формат : AC-3
Формат/Информация : Audio Coding 3
Расширение режима : CM (complete main)
Параметр Endianness формата : Big
Идентификатор кодека : 2000
Продолжительность : 1 ч. 9 м.
Вид битрейта : Постоянный
Битрейт : 384 Кбит/сек
Каналы : 6 каналов
Расположение каналов : Front: L C R, Side: L R, LFE
Частота : 48,0 КГц
Битовая глубина : 16 бит
Метод сжатия : С потерями
Размер потока : 190 Мбайт (13%)
Выравнивание : Разделение по промежуткам
Продолжительность промежутка : 41 мс. (1,02 видеокадр)
Время предзагрузки промежутка : 500 мс.
Аудио #2
Идентификатор : 2
Формат : AC-3
Формат/Информация : Audio Coding 3
Расширение режима : CM (complete main)
Параметр Endianness формата : Big
Идентификатор кодека : 2000
Продолжительность : 1 ч. 9 м.
Вид битрейта : Постоянный
Битрейт : 192 Кбит/сек
Каналы : 2 канала
Расположение каналов : Front: L R
Частота : 48,0 КГц
Битовая глубина : 16 бит
Метод сжатия : С потерями
Размер потока : 94,8 Мбайт (6%)
Выравнивание : Разделение по промежуткам
Продолжительность промежутка : 41 мс. (1,02 видеокадр)
Время предзагрузки промежутка : 500 мс.

Сравнение

http://rutracker.org/forum/viewtopic.php?t=4288581 - с конкурентом
http://screenshotcomparison.com/comparison/140/ - перекроп, размер файла не соответствует тех. требованиям
Показать сообщения:    

Текущее время: Сегодня 20:37

Часовой пояс: GMT



Вы не можете начинать темы
Вы не можете отвечать на сообщения
Вы не можете редактировать свои сообщения
Вы не можете удалять свои сообщения
Вы не можете голосовать в опросах
Вы не можете прикреплять файлы к сообщениям
Вы не можете скачивать файлы
Наши партнеры: интернет магазин Ивановского трикотажа textilla.ru