Важное объявление!
У Нас Все раздачи мультитрекерные, при нуле пиров в релизах, можете смело вставать на закачку!
Статистика раздачи
Размер:     |    Зарегистрирован:     |    Скачан:     |   
Нет
 
     
 
 
Автор Сообщение

HUNTER

Стаж:
5 лет
Сообщений:
68401

Репутация: 101

[+] [-]
Вне форума [Профиль] [ЛС]

Подземное население / Люди-кроты / The Mole People
-Страна: США
Жанр: ужасы, фантастика, фэнтези
Год выпуска: 1956
Продолжительность: 01:41:20-Перевод: Одноголосый закадровый - SATKUR-Cубтитры: русские, английские
Оригинальная аудиодорожка: английский-Режиссер: Вирджил В. Фогель / Virgil W. Vogel-В ролях: Джон Агар, Синтия Патрик, Хью Бомонт, Алан Напье, Нестор Пайва, Фил Чэмберс, Родд Редвинг, Робин Хьюз, Фрэнк Бакстер, Джо Абдулла-Описание:
Во время раскопок чего-то очень древнего предположительно в Месопотамии, археологи случайно находят табличку с шумерской надписью когда-то находившейся на храме. Текст написан от лица мифического царя Шару. Но тут случается землетрясение и свежепрочитанная табличка раскалывается. Археологи, однако, не унывают, потому что местный мальчик-пастух приносит им древнюю лампу на которой изображён местный, шумерский вариант Всемирного потопа. Выпытав у мальчика, что лампа была найдена у склонов горы Кухитара, находящейся поблизости, доктор Роджер Бентли решается довериться тексту на лампе и штурмовать гору, чтобы попытаться найти там останки мифической шумерской династии. Найдёт он, разумеется, гораздо больше, чем просто останки.-Доп. информация: за блюрик спасибо igor nisan--Сэмпл: Скачать-Тип релиза: BDRemux 1080p
Контейнер: MKV-Видео: MPEG-4 AVC Video; 31342 kbps; 1080p; 23.976 fps; 16:9; High Profile 4.1
Аудио 1: Russian; AC3; 48.0 KHz; 2ch; 192 Kbps
Аудио 2: English; FLAC; 48.0 KHz; 2ch; 191 Kbps

MediaInfo

Format : Matroska
Format version : Version 4 / Version 2
File size : 17.2 GiB
Duration : 1h 17mn
Overall bit rate mode : Variable
Overall bit rate : 31.7 Mbps
Encoded date : UTC 2016-05-16 12:10:37
Writing application : mkvmerge v8.3.0 ('Over the Horizon') 64bit
Writing library : libebml v1.3.1 + libmatroska v1.4.2
Attachments : poster.jpg
Video
ID : 1
Format : AVC
Format/Info : Advanced Video Codec
Format profile : High@L4.1
Format settings, CABAC : Yes
Format settings, ReFrames : 4 frames
Codec ID : V_MPEG4/ISO/AVC
Duration : 1h 17mn
Bit rate mode : Variable
Bit rate : 31.3 Mbps
Maximum bit rate : 36.0 Mbps
Width : 1 920 pixels
Height : 1 080 pixels
Display aspect ratio : 16:9
Frame rate mode : Constant
Frame rate : 24.000 fps
Standard : NTSC
Color space : YUV
Chroma subsampling : 4:2:0
Bit depth : 8 bits
Scan type : Progressive
Bits/(Pixel*Frame) : 0.630
Stream size : 17.0 GiB (99%)
Default : Yes
Forced : No
Color range : Limited
Color primaries : BT.709
Transfer characteristics : BT.709
Matrix coefficients : BT.709
Audio #1
ID : 2
Format : AC-3
Format/Info : Audio Coding 3
Mode extension : CM (complete main)
Format settings, Endianness : Big
Codec ID : A_AC3
Duration : 1h 17mn
Bit rate mode : Constant
Bit rate : 192 Kbps
Channel(s) : 2 channels
Channel positions : Front: L R
Sampling rate : 48.0 KHz
Frame rate : 31.250 fps (1536 spf)
Compression mode : Lossy
Stream size : 106 MiB (1%)
Title : VO Satkur
Language : Russian
Default : Yes
Forced : No
Audio #2
ID : 3
Format : FLAC
Format/Info : Free Lossless Audio Codec
Codec ID : A_FLAC
Duration : 1h 17mn
Bit rate mode : Variable
Bit rate : 191 Kbps
Channel(s) : 2 channels
Channel positions : Front: L R
Sampling rate : 48.0 KHz
Frame rate : 11.719 fps (4096 spf)
Bit depth : 16 bits
Stream size : 106 MiB (1%)
Writing library : libFLAC 1.3.1 (UTC 2014-11-25)
Language : English
Default : No
Forced : No
Text #1
ID : 4
Format : UTF-8
Codec ID : S_TEXT/UTF8
Codec ID/Info : UTF-8 Plain Text
Duration : 1h 15mn
Bit rate : 74 bps
Count of elements : 656
Stream size : 41.3 KiB (0%)
Language : Russian
Default : No
Forced : No
Text #2
ID : 5
Format : UTF-8
Codec ID : S_TEXT/UTF8
Codec ID/Info : UTF-8 Plain Text
Duration : 1h 15mn
Bit rate : 45 bps
Count of elements : 692
Stream size : 25.4 KiB (0%)
Language : English
Default : No
Forced : No

Скриншоты


_________________
Показать сообщения:    

Текущее время: Сегодня 06:10

Часовой пояс: GMT



Вы не можете начинать темы
Вы не можете отвечать на сообщения
Вы не можете редактировать свои сообщения
Вы не можете удалять свои сообщения
Вы не можете голосовать в опросах
Вы не можете прикреплять файлы к сообщениям
Вы не можете скачивать файлы