Подземка / Subway (Люк Бессон) [1985 г., криминал, драма, триллер, BDRip] MVO+ DVO+ Original+ Sub :: Ивановский Торрент трекер
Важное объявление!
У Нас Все раздачи мультитрекерные, при нуле пиров в релизах, можете смело вставать на закачку!
 
Автор Сообщение

mihis

[Профиль] [ЛС]

Подземка / Subway«An underground story where lives intertwine»
Год выпуска: 1985
Страна: Франция
Жанр: криминал, драма, триллер
Продолжительность: 01:42:20
Перевод: Профессиональный (многоголосый закадровый) Амальгама + Профессиональный (двухголосый закадровый) Видеосервис + Оригинал
Cубтитры: русские, 2 вида (внешние srt*)
Режиссер: Люк Бессон
В ролях: Изабель Аджани, Кристофер Ламберт, Жан Рено, Ришар Боренже, Мишель Галабрю, Жан Буиз, Жан-Юг Англад
О фильме: Циник, вор и нарушитель общественного спокойствия Фред промышляет взломом сейфов и прочим криминалом. Однажды в его руки попадают документы, при помощи которых он получает возможность шантажировать загадочную красавицу Хелену. За документами тут же начинают охотиться их владельцы. Скрываясь от своих преследователей, герой прячется в метро, где знакомится со странной субкультурой живущих там людей, и где с ним происходят совершенно неожиданные истории.

Качество: BDRip
Формат: AVI
Видео кодек: XviD
Аудио кодек: AC3
Видео: 720x304 (2.37:1), 23.976 fps, XviD build 50 ~2151 kbps avg, 0.40 bit/pixel
Аудио #1: 48 kHz, AC3 Dolby Digital, 3/2 (L,C,R,l,r) + LFE ch, ~448.00 kbps avg Амальгама
Аудио #2: 48 kHz, AC3 Dolby Digital, 2/0 (L, R,) ~192.00 kbps avg Видеосервис
Аудио #3: 48 kHz, AC3 Dolby Digital, 2/0 (L, R,) ~256.00 kbps avg Original

Награды

Британская академия, 1986 год
Номинации (1):
Лучший фильм на иностранном языке
Сезар, 1986 год
Победитель (3):
Лучший актер (Кристофер Ламберт)
Лучший звук
Лучшие декорации
Номинации (10):
Лучший фильм
Лучшая актриса (Изабель Аджани)
Лучший актер второго плана (Мишель Галабрю)
Лучший актер второго плана (Жан-Юг Англад)
Лучший актер второго плана (Жан-Пьер Бакри)
Лучший режиссер (Люк Бессон)
Лучшая работа оператора
Лучший монтаж
Лучший саундтрек
Лучший постер

MediaInfo

Общее
Полное имя : D:\Video\Podzemka.1985.TRIPLE.BDRip.XviD.AC3.-HQCLUB\Podzemka.1985.TRIPLE.BDRip.XviD.AC3.-HQCLUB.avi
Формат : AVI
Формат/Информация : Audio Video Interleave
Профиль формата : OpenDML
Размер файла : 2,18 Гбайт
Продолжительность : 1 ч. 42 м.
Общий поток : 3055 Кбит/сек
Программа кодирования : VirtualDubMod 1.5.10.2 (build 2542/release)
Библиотека кодирования : VirtualDubMod build 2542/release
Видео
Идентификатор : 0
Формат : MPEG-4 Visual
Профиль формата : Advanced Simple@L5
Параметр BVOP формата : 1
Параметр QPel формата : Нет
Параметр GMC формата : Без точки перехода
Параметр матрицы формата : Выборочная
Идентификатор кодека : XVID
Идентификатор кодека/Подсказка : XviD
Продолжительность : 1 ч. 42 м.
Битрейт : 2135 Кбит/сек
Ширина : 720 пикселей
Высота : 304 пикселя
Соотношение сторон : 2,35:1
Частота кадров : 24,000 кадра/сек
Цветовое пространство : YUV
Субдискретизация насыщенности : 4:2:0
Битовая глубина : 8 бит
Тип развёртки : Прогрессивная
Метод сжатия : С потерями
Бит/(Пиксели*Кадры) : 0.406
Размер потока : 1,53 Гбайт (70%)
Библиотека кодирования : XviD 1.2.1 (UTC 2008-12-04)
Аудио #1
Идентификатор : 1
Формат : AC-3
Формат/Информация : Audio Coding 3
Расширение режима : CM (complete main)
Параметр Endianness формата : Big
Идентификатор кодека : 2000
Продолжительность : 1 ч. 42 м.
Вид битрейта : Постоянный
Битрейт : 448 Кбит/сек
Каналы : 5 каналов
Расположение каналов : Front: L C R, Side: L R
Частота : 48,0 КГц
Битовая глубина : 16 бит
Метод сжатия : С потерями
Размер потока : 328 Мбайт (15%)
Выравнивание : Разделение по промежуткам
Продолжительность промежутка : 42 мс. (1,00 видеокадр)
Время предзагрузки промежутка : 500 мс.
Аудио #2
Идентификатор : 2
Формат : AC-3
Формат/Информация : Audio Coding 3
Профиль формата : Dolby Digital
Расширение режима : CM (complete main)
Параметр Endianness формата : Big
Идентификатор кодека : 2000
Продолжительность : 1 ч. 42 м.
Вид битрейта : Постоянный
Битрейт : 192 Кбит/сек
Каналы : 2 канала
Расположение каналов : Front: L R
Частота : 48,0 КГц
Битовая глубина : 16 бит
Метод сжатия : С потерями
Размер потока : 141 Мбайт (6%)
Выравнивание : Разделение по промежуткам
Продолжительность промежутка : 42 мс. (1,00 видеокадр)
Время предзагрузки промежутка : 500 мс.
Аудио #3
Идентификатор : 3
Формат : AC-3
Формат/Информация : Audio Coding 3
Профиль формата : Dolby Digital
Расширение режима : CM (complete main)
Параметр Endianness формата : Big
Идентификатор кодека : 2000
Продолжительность : 1 ч. 42 м.
Вид битрейта : Постоянный
Битрейт : 256 Кбит/сек
Каналы : 2 канала
Расположение каналов : Front: L R
Частота : 48,0 КГц
Битовая глубина : 16 бит
Метод сжатия : С потерями
Размер потока : 187 Мбайт (8%)
Выравнивание : Разделение по промежуткам
Продолжительность промежутка : 42 мс. (1,00 видеокадр)
Время предзагрузки промежутка : 500 мс.
 
Показать сообщения:    

Текущее время: Сегодня 17:37

Часовой пояс: GMT



Вы не можете начинать темы
Вы не можете отвечать на сообщения
Вы не можете редактировать свои сообщения
Вы не можете удалять свои сообщения
Вы не можете голосовать в опросах
Вы не можете прикреплять файлы к сообщениям
Вы не можете скачивать файлы