Ивановский Торрент трекер
Яндекс.Погода
 

[Цитировать]
HUNTER

Поддержите своего стрелка / Support Your Local Gunfighter«The story of a man who took the law into his own finger!»- Страна: США | MGM
Жанр: мелодрама, комедия, вестерн
Год выпуска: 1971
Продолжительность: 01:32:17-Перевод №1: Профессиональный (двухголосый, закадровый) НТВ+
Перевод №2: Профессиональный (многоголосый, закадровый) ТРК «Петербург-Пятый канал»
Оригинальная аудиодорожка: English
Cубтитры: English (full)-Режиссер: Берт Кеннеди / Burt Kennedy
В ролях: Джеймс Гарнер / James Garner, Сюзанн Плешетт / Suzanne Pleshette, Джек Элам / Jack Elam, Гарри Морган / Harry Morgan, Джоан Блонделл / Joan Blondell, Мари Уиндсор / Marie Windsor, Джон Денер / John Dehner, Генри Джонс / Henry Jones, Даб Тейлор / Dub Taylor, Кэтлин Фримен / Kathleen Freeman-Описание: Брачный аферист Латиго Смит, ускользая от очередной брошенной дамочки, оказывается в шахтёрском городке с красноречивым названием Чистилище. Городок этот контролируется двумя конкурирующими группировками. Противоречия не разрешимы, и глава одной из группировок вызывает знаменитого стрелка Свифти Моргана чтобы уладить проблему с конкурентом. Латиго Смит оказывается в самой гуще стремительно развивающихся событий.-imdb.com: 6.90 (2877)
kinopoisk.ru: 5.933 (28)
Download sample-Качество видео: HDTVRip 720p | исх. Support Your Local Gunfighter 1971 1080i HDTV DD5.1 MPEG-2-TrollHD
Формат видео: MKV-Видео: 1280x692 at 29,97 fps, x264@L4.1, crf, ~6661 kbps avg
Аудио №1: 48 kHz, AC3, 2/0 (L,R) ch, ~192.00 kbps avg | Профессиональный (двухголосый, закадровый) НТВ+
Аудио №2: 48 kHz, AC3, 2/0 (L,R) ch, ~192.00 kbps avg | Профессиональный (многоголосый, закадровый) ТРК «Петербург-Пятый канал»
Аудио №3: 48 kHz, AC3, 3/2 (L,C,R,l,r) + LFE ch, ~384.00 kbps avg | English-

Notes

За озвучку НТВ+ спасибо IVH. Озвучка: Анна Каменкова и Александр Котов.
За озвучку 5го канала спасибо Нгаут.
by HPotter

MediaInfo

General
Unique ID : 226638514266042126300911128868475014719 (0xAA80FD785984D3D2993A7A729BFE8E3F)
Complete name : D:\Фильмы\Support.Your.Local.Gunfighter.1971.720p.HDTV.2xRus.Eng.HDCLUB.mkv
Format : Matroska
Format version : Version 4 / Version 2
File size : 4.79 GiB
Duration : 1h 32mn
Overall bit rate : 7 432 Kbps
Encoded date : UTC 2014-03-07 14:35:40
Writing application : mkvmerge v6.8.0 ('Theme for Great Cities') 64bit built on Mar 2 2014 21:34:26
Writing library : libebml v1.3.0 + libmatroska v1.4.1
Video
ID : 1
Format : AVC
Format/Info : Advanced Video Codec
Format profile : High@L4.1
Format settings, CABAC : Yes
Format settings, ReFrames : 9 frames
Codec ID : V_MPEG4/ISO/AVC
Duration : 1h 32mn
Bit rate : 6 516 Kbps
Width : 1 280 pixels
Height : 692 pixels
Display aspect ratio : 1.85:1
Frame rate mode : Constant
Frame rate : 29.970 fps
Color space : YUV
Chroma subsampling : 4:2:0
Bit depth : 8 bits
Scan type : Progressive
Bits/(Pixel*Frame) : 0.245
Stream size : 4.20 GiB (88%)
Title : Support Your Local Gunfighter 1971
Writing library : x264 core 142 r2389 956c8d8
Encoding settings : cabac=1 / ref=9 / deblock=1:-3:-3 / analyse=0x3:0x133 / me=umh / subme=10 / psy=1 / psy_rd=1.10:0.00 / mixed_ref=1 / me_range=32 / chroma_me=1 / trellis=2 / 8x8dct=1 / cqm=0 / deadzone=21,11 / fast_pskip=1 / chroma_qp_offset=-2 / threads=16 / lookahead_threads=2 / sliced_threads=0 / nr=0 / decimate=1 / interlaced=0 / bluray_compat=0 / constrained_intra=0 / bframes=7 / b_pyramid=2 / b_adapt=2 / b_bias=0 / direct=3 / weightb=1 / open_gop=0 / weightp=2 / keyint=250 / keyint_min=23 / scenecut=40 / intra_refresh=0 / rc_lookahead=40 / rc=crf / mbtree=1 / crf=17.0 / qcomp=0.70 / qpmin=0 / qpmax=40 / qpstep=4 / vbv_maxrate=50000 / vbv_bufsize=50000 / crf_max=0.0 / nal_hrd=none / filler=0 / ip_ratio=1.25 / aq=1:0.70
Language : English
Default : Yes
Forced : No
Audio #1
ID : 2
Format : AC-3
Format/Info : Audio Coding 3
Mode extension : CM (complete main)
Format settings, Endianness : Big
Codec ID : A_AC3
Duration : 1h 32mn
Bit rate mode : Constant
Bit rate : 192 Kbps
Channel count : 2 channels
Channel positions : Front: L R
Sampling rate : 48.0 KHz
Bit depth : 16 bits
Compression mode : Lossy
Stream size : 127 MiB (3%)
Title : AC3 2.0 @ 192 kbps - НТВ+
Language : Russian
Default : Yes
Forced : No
Audio #2
ID : 3
Format : AC-3
Format/Info : Audio Coding 3
Mode extension : CM (complete main)
Format settings, Endianness : Big
Codec ID : A_AC3
Duration : 1h 32mn
Bit rate mode : Constant
Bit rate : 192 Kbps
Channel count : 2 channels
Channel positions : Front: L R
Sampling rate : 48.0 KHz
Bit depth : 16 bits
Compression mode : Lossy
Stream size : 127 MiB (3%)
Title : AC3 2.0 @ 192 kbps - ТРК «Петербург-Пятый канал»
Language : Russian
Default : No
Forced : No
Audio #3
ID : 4
Format : AC-3
Format/Info : Audio Coding 3
Mode extension : CM (complete main)
Format settings, Endianness : Big
Codec ID : A_AC3
Duration : 1h 32mn
Bit rate mode : Constant
Bit rate : 384 Kbps
Channel count : 6 channels
Channel positions : Front: L C R, Side: L R, LFE
Sampling rate : 48.0 KHz
Bit depth : 16 bits
Compression mode : Lossy
Delay relative to video : 29ms
Stream size : 253 MiB (5%)
Title : AC3 5.1 @ 384 kbps
Language : English
Default : No
Forced : No
Text
ID : 5
Format : UTF-8
Codec ID : S_TEXT/UTF8
Codec ID/Info : UTF-8 Plain Text
Language : English
Default : No
Forced : No

Screenshots



Показать сообщения:    

Текущее время: 15-Дек 23:45

Часовой пояс: UTC ± 0


Вы не можете начинать темы
Вы не можете отвечать на сообщения
Вы не можете редактировать свои сообщения
Вы не можете удалять свои сообщения
Вы не можете голосовать в опросах
Вы не можете прикреплять файлы к сообщениям
Вы не можете скачивать файлы

!ВНИМАНИЕ!
Сайт не предоставляет электронные версии произведений, а занимается лишь коллекционированием и каталогизацией ссылок, присылаемых и публикуемых на форуме нашими читателями. Если вы являетесь правообладателем какого-либо представленного материала и не желаете, чтобы ссылка на него находилась в нашем каталоге, свяжитесь с нами, и мы незамедлительно удалим ее. Файлы для обмена на трекере предоставлены пользователями сайта, и администрация не несет ответственности за их содержание. Просьба не заливать файлы, защищенные авторскими правами, а также файлы нелегального содержания!