Ивановский Торрент трекер
Яндекс.Погода
 

[Цитировать]
димитри37

Повелитель тьмы / Соуни: Человеческая плоть
Lord of Darkness / Sawney: Flesh of Man

Страна: Великобритания
Жанр: ужасы
Год выпуска: 2012
Продолжительность: Великобритания
Перевод: Одноголосый закадровый
Cубтитры: нет
Режиссер: Рикки Вуд / Ricky Wood
В ролях: Элизабет Браун , Лиза Камерон , Линдсей Кромар и другие
Описание: Более 500 лет назад, в землях Шотландии, жил один клан. Настолько злой, настолько кровожадный, что они поедали своих жертв. Отец, дочь, сын, внук - разнузданные убийцы. Они жили в тёмной пещере глубоко под землёй, где забили и сожрали более 1000 человек. Наконец, этих выродков поймали и немедленно казнили без суда. Но один из них выжил...

Качество видео: DVDRip
Формат видео: AVI
Видео: 720x304 (2.35:1), 29.970 fps, XviD build 64 ~ 1736 kbps avg, 0.26 bit/pixel
Аудио: 48 kHz, AC3 Dolby Digital, 2/0 (L,R) ch, 224.00 kbps avg

MediaInfo

I:\Lord Of Darkness 2012 KypoJIecoB.avi
General
Complete name : I:\Lord Of Darkness 2012 KypoJIecoB.avi
Format : AVI
Format/Info : Audio Video Interleave
File size : 1.24 GiB
Duration : 1h 30mn
Overall bit rate : 1 972 Kbps
Writing application : VirtualDubMod 1.5.10.2 (build 2540/release)
Writing library : VirtualDubMod build 2540/release
Video #0
ID : 0
Format : MPEG-4 Visual
Format profile : Advanced Simple@L5
Format settings, BVOP : 2
Format settings, QPel : No
Format settings, GMC : No warppoints
Format settings, Matrix : Default (H.263)
Codec ID : XVID
Codec ID/Hint : XviD
Duration : 1h 30mn
Bit rate : 1 736 Kbps
Width : 720 pixels
Height : 304 pixels
Display aspect ratio : 2.35:1
Frame rate : 29.970 fps
Color space : YUV
Chroma subsampling : 4:2:0
Bit depth : 8 bits
Scan type : Progressive
Compression mode : Lossy
Bits/(Pixel*Frame) : 0.265
Stream size : 1.09 GiB (88%)
Writing library : XviD 64
Audio #1
ID : 1
Format : AC-3
Format/Info : Audio Coding 3
Mode extension : CM (complete main)
Format settings, Endianness : Big
Codec ID : 2000
Duration : 1h 30mn
Bit rate mode : Constant
Bit rate : 224 Kbps
Channel(s) : 2 channels
Channel positions : Front: L R
Sampling rate : 48.0 KHz
Bit depth : 16 bits
Compression mode : Lossy
Stream size : 144 MiB (11%)
Alignment : Split accross interleaves
Interleave, duration : 33 ms (1.00 video frame)
Interleave, preload duration : 500 ms

Скриншот c названием фильма

Скриншоты

-


Показать сообщения:    

Текущее время: 12-Дек 23:19

Часовой пояс: UTC ± 0


Вы не можете начинать темы
Вы не можете отвечать на сообщения
Вы не можете редактировать свои сообщения
Вы не можете удалять свои сообщения
Вы не можете голосовать в опросах
Вы не можете прикреплять файлы к сообщениям
Вы не можете скачивать файлы

!ВНИМАНИЕ!
Сайт не предоставляет электронные версии произведений, а занимается лишь коллекционированием и каталогизацией ссылок, присылаемых и публикуемых на форуме нашими читателями. Если вы являетесь правообладателем какого-либо представленного материала и не желаете, чтобы ссылка на него находилась в нашем каталоге, свяжитесь с нами, и мы незамедлительно удалим ее. Файлы для обмена на трекере предоставлены пользователями сайта, и администрация не несет ответственности за их содержание. Просьба не заливать файлы, защищенные авторскими правами, а также файлы нелегального содержания!