Важное объявление!
У Нас Все раздачи мультитрекерные, при нуле пиров в релизах, можете смело вставать на закачку!
Статистика раздачи
Размер:     |    Зарегистрирован:     |    Скачан:     |   
Нет
 
     
 
 
Автор Сообщение

HUNTER

Стаж:
5 лет
Сообщений:
67958

Репутация: 101

[+] [-]
Вне форума [Профиль] [ЛС]

Повелитель страниц / The Pagemaster-Страна: США
Жанр: мультфильм, приключения, семейный
Продолжительность: 01:15:28
Год выпуска: 1994
Перевод 1: Профессиональный (многоголосый закадровый) "Позитив-мультимедиа"
Перевод 2: Профессиональный (многоголосый закадровый) ТНТ/СТС
Перевод 3: Авторский (одноголосый закадровый) Юрий Сербин
Перевод 4: Авторский (одноголосый закадровый) Сергей Визгунов
Перевод 5: Авторский (одноголосый закадровый) Вартан Дохалов
Перевод 6: Авторский (одноголосый закадровый) Василий Горчаков
Перевод 7: Авторский (одноголосый закадровый) Антон Пронин
Русские субтитры: есть-Режиссёры: Пиксоут Хант, Джо Джонстон / Pixote Hunt, Joe Johnston
В ролях: Маколей Калкин, Кенан Дж. Хоувл, Алексис Киршнер, Джессика Киршнер, Гай Манскер, Брэндон С. МакКэй, Стефен Шиэн, Эд Бегли мл., Мел Харрис, Кристофер Ллойд...- | Релиз: -Описание: Ричайрд Тайлер заходит в библиотеку и, благодаря волшебству, попадает на страницы самых лучших детских книг. Вместе с любимыми героями он участвует в мультипликационных приключениях, так как сам стал мультяшкой.-Доп. информация:
  • За исходный ремукс спасибо dsk71.
  • Перевод Юрия Сербина доступен благодаря пользователям ресурса E180 denis_mgn_1987, Марлон, Nadoelo, vik19662007, Linnan, duckling, Wolf_Larsen, I_Am_Hell, xfiles, luka69, ZeDOK, foxlight, DreamWarrior, multmir, xerman13, carnivale, Letyoha3, SavineX78, pestel, ZombX, ultrajeka, Jiraya87, KINOGON при участии пользователей HD-Club'а Luka69, Naumec.
  • Дорожки с переводами "Позитив-мультимедиа", Юрия Сербина и Сергея Визгунова получены путём наложения голосов на декодированный центральный канал оригинальной DTS-HD MA дорожки. Работа со звуком - xfiles.
  • За звуковую дорожку с переводом Василия Горчакова спасибо ilbib, vik19662007, duckling.
  • За звуковую дорожку с переводом "ТНТ/СТС" спасибо miha2154.
  • За исходные украинские звуковые дорожки спасибо xslim и olgaya. Синхронизация - xfiles.
  • Кодирование видео, работа с субтитрами - xfiles.
-Семпл: http://sendfile.su/901885-Качество: BDRip 1080p [исходник The.Pagemaster.1994.1080p.BD-Remux.3хRus.Ukr.Eng.HDCLUB]
Формат: MKV
Видео: 1920x1038 (1.850:1), 23.976 fps, AVC, 25400 kbps, 0.518 bits/pixel
Аудио #1: Russian, 48.0 KHz, DTS, 6 ch, 1510 Kbps - Многоголосый закадровый | "Позитив-мультимериа"
Аудио #2: Russian, 48.0 KHz, AC3, 2 ch, 192 Kbps - Многоголосый закадровый | ТНТ/СТС
Аудио #3: Russian, 48.0 KHz, DTS, 6 ch, 1510 Kbps - Одноголосый закадровый | Юрий Сербин
Аудио #4: Russian, 48.0 KHz, DTS, 6 ch, 1510 Kbps - Одноголосый закадровый | Сергей Визгунов
Аудио #5: Russian, 48.0 KHz, AC3, 2 ch, 192 Kbps - Одноголосый закадровый | Вартан Дохалов (VHS)
Аудио #6: Russian, 48.0 KHz, AC3, 2 ch, 192 Kbps - Одноголосый закадровый | Василий Горчаков (VHS)
Аудио #7: Russian, 48.0 KHz, AC3, 2 ch, 192 Kbps - Одноголосый закадровый | Антон Пронин (VHS)
Аудио #8: Ukrainian, 48.0 KHz, AC3, 1 ch, 192 Kbps - Багатоголосий закадровый | "Новий канал"
Аудио #9: Ukrainian, 48.0 KHz, AC3, 1 ch, 192 Kbps - Двоголосий закадровый | "Гамма"
Аудио #10: English, 48.0 KHz, DTS, 6 ch, 1510 Kbps
Субтитры: Русские, English (SDH)

MediaInfo

x264.log

x264 [info]: 1920x1038p 1:1 @ 24000/1001 fps (cfr)x264 [info]: using SAR=1/1x264 [info]: using cpu capabilities: MMX2 SSE2Fast SSSE3 SSE4.2 AVXx264 [info]: profile High, level 4.1x264 [info]: cabac=1 ref=4 deblock=1:-2:-1 analyse=0x3:0x133 me=umh subme=11 psy=1 fade_compensate=0.00 psy_rd=0.60:0.00 mixed_ref=1 me_range=48 chroma_me=1 trellis=2 8x8dct=1 cqm=0 deadzone=21,11 fast_pskip=0 chroma_qp_offset=-2 threads=12 lookahead_threads=3 sliced_threads=0 nr=0 decimate=1 interlaced=0 bluray_compat=0 constrained_intra=0 fgo=0 bframes=12 b_pyramid=2 b_adapt=2 b_bias=0 direct=3 weightb=1 open_gop=0 weightp=2 keyint=250 keyint_min=23 scenecut=40 intra_refresh=0 rc_lookahead=70 rc=crf mbtree=0 crf=18.0000 qcomp=0.60 qpmin=0 qpmax=69 qpstep=4 vbv_maxrate=50000 vbv_bufsize=62500 crf_max=0.0 nal_hrd=none filler=0 ip_ratio=1.40 pb_ratio=1.30 aq=2:1.00x264 [info]: frame I:606 Avg QP:16.86 size:270665x264 [info]: frame P:21998 Avg QP:18.02 size:179930x264 [info]: frame B:85969 Avg QP:20.22 size:119294x264 [info]: consecutive B-frames: 1.6% 2.5% 5.0% 20.3% 11.5% 40.1% 5.1% 6.0% 2.2% 2.9% 0.8% 1.7% 0.4%x264 [info]: mb I I16..4: 3.8% 88.9% 7.2%x264 [info]: mb P I16..4: 0.6% 48.3% 0.8% P16..4: 13.0% 17.1% 7.7% 0.7% 0.1% skip:11.7%x264 [info]: mb B I16..4: 0.1% 18.2% 0.1% B16..8: 25.8% 21.6% 5.5% direct:12.2% skip:16.4% L0:39.6% L1:35.1% BI:25.3%x264 [info]: 8x8 transform intra:98.0% inter:70.9%x264 [info]: direct mvs spatial:99.7% temporal:0.3%x264 [info]: coded y,uvDC,uvAC intra: 98.3% 98.1% 89.7% inter: 61.0% 59.0% 17.7%x264 [info]: i16 v,h,dc,p: 34% 12% 14% 40%x264 [info]: i8 v,h,dc,ddl,ddr,vr,hd,vl,hu: 7% 6% 18% 12% 13% 11% 11% 11% 11%x264 [info]: i4 v,h,dc,ddl,ddr,vr,hd,vl,hu: 11% 11% 10% 10% 14% 12% 12% 10% 11%x264 [info]: i8c dc,h,v,p: 54% 17% 14% 15%x264 [info]: Weighted P-Frames: Y:12.8% UV:7.8%x264 [info]: ref P L0: 43.6% 9.9% 26.9% 17.0% 2.5% 0.1%x264 [info]: ref B L0: 82.1% 14.5% 3.4%x264 [info]: ref B L1: 89.1% 10.9%x264 [info]: kb/s:25400.04x264 [info]: encoded 108573 frames, 3.19 fps, 25400.04 kb/s, duration 9:27:32.65
GeneralUnique ID : 218470440843222783458559231178201995247 (0xA45BE05BA453049BBAEBA8A4265597EF)Complete name : The.Pagemaster.1994.BDRip.1080p.x264-xfiles.rutracker.mkvFormat : MatroskaFormat version : Version 4 / Version 2File size : 17.2 GiBDuration : 1h 15mnOverall bit rate : 32.6 MbpsMovie name : The Pagemaster 1994 BDRip 1080p x264-xfiles.rutrackerEncoded date : UTC 2013-11-27 19:51:19Writing application : mkvmerge v6.5.0 ('Isn't she lovely') built on Oct 20 2013 12:50:05Writing library : libebml v1.3.0 + libmatroska v1.4.1
VideoID : 1Format : AVCFormat/Info : Advanced Video CodecFormat profile : High@L4.1Format settings, CABAC : YesFormat settings, ReFrames : 4 framesCodec ID : V_MPEG4/ISO/AVCDuration : 1h 15mnBit rate : 24.8 MbpsWidth : 1 920 pixelsHeight : 1 038 pixelsDisplay aspect ratio : 1.85:1Frame rate mode : ConstantFrame rate : 23.976 fpsColor space : YUVChroma subsampling : 4:2:0Bit depth : 8 bitsScan type : ProgressiveBits/(Pixel*Frame) : 0.518Stream size : 13.1 GiB (76%)Title : http://rutracker.org/forum/viewtopic.php?t=4600045Writing library : x264 core 140 r2377kMod 1ca7bb9Encoding settings : cabac=1 / ref=4 / deblock=1:-2:-1 / analyse=0x3:0x133 / me=umh / subme=11 / psy=1 / fade_compensate=0.00 / psy_rd=0.60:0.00 / mixed_ref=1 / me_range=48 / chroma_me=1 / trellis=2 / 8x8dct=1 / cqm=0 / deadzone=21,11 / fast_pskip=0 / chroma_qp_offset=-2 / threads=12 / lookahead_threads=3 / sliced_threads=0 / nr=0 / decimate=1 / interlaced=0 / bluray_compat=0 / constrained_intra=0 / fgo=0 / bframes=12 / b_pyramid=2 / b_adapt=2 / b_bias=0 / direct=3 / weightb=1 / open_gop=0 / weightp=2 / keyint=250 / keyint_min=23 / scenecut=40 / intra_refresh=0 / rc_lookahead=70 / rc=crf / mbtree=0 / crf=18.0000 / qcomp=0.60 / qpmin=0 / qpmax=69 / qpstep=4 / vbv_maxrate=50000 / vbv_bufsize=62500 / crf_max=0.0 / nal_hrd=none / filler=0 / ip_ratio=1.40 / pb_ratio=1.30 / aq=2:1.00Language : EnglishDefault : YesForced : NoColor primaries : BT.709Transfer characteristics : BT.709Matrix coefficients : BT.709
Audio #1ID : 2Format : DTSFormat/Info : Digital Theater SystemsMode : 16Format settings, Endianness : BigCodec ID : A_DTSDuration : 1h 15mnBit rate mode : ConstantBit rate : 1 509 KbpsChannel(s) : 6 channelsChannel positions : Front: L C R, Side: L R, LFESampling rate : 48.0 KHzBit depth : 24 bitsCompression mode : LossyStream size : 815 MiB (5%)Title : Многоголосый закадровый | "Позитив-мультимериа"Language : RussianDefault : YesForced : No
Audio #2ID : 3Format : AC-3Format/Info : Audio Coding 3Mode extension : CM (complete main)Format settings, Endianness : BigCodec ID : A_AC3Duration : 1h 15mnBit rate mode : ConstantBit rate : 192 KbpsChannel(s) : 2 channelsChannel positions : Front: L RSampling rate : 48.0 KHzBit depth : 16 bitsCompression mode : LossyStream size : 104 MiB (1%)Title : Многоголосый закадровый | ТНТ/СТСLanguage : RussianDefault : NoForced : No
Audio #3ID : 4Format : DTSFormat/Info : Digital Theater SystemsMode : 16Format settings, Endianness : BigCodec ID : A_DTSDuration : 1h 15mnBit rate mode : ConstantBit rate : 1 509 KbpsChannel(s) : 6 channelsChannel positions : Front: L C R, Side: L R, LFESampling rate : 48.0 KHzBit depth : 24 bitsCompression mode : LossyStream size : 815 MiB (5%)Title : Одноголосый закадровый | Юрий СербинLanguage : RussianDefault : NoForced : No
Audio #4ID : 5Format : DTSFormat/Info : Digital Theater SystemsMode : 16Format settings, Endianness : BigCodec ID : A_DTSDuration : 1h 15mnBit rate mode : ConstantBit rate : 1 509 KbpsChannel(s) : 6 channelsChannel positions : Front: L C R, Side: L R, LFESampling rate : 48.0 KHzBit depth : 24 bitsCompression mode : LossyStream size : 815 MiB (5%)Title : Одноголосый закадровый | Сергей ВизгуновLanguage : RussianDefault : NoForced : No
Audio #5ID : 6Format : AC-3Format/Info : Audio Coding 3Mode extension : CM (complete main)Format settings, Endianness : BigCodec ID : A_AC3Duration : 1h 15mnBit rate mode : ConstantBit rate : 192 KbpsChannel(s) : 2 channelsChannel positions : Front: L RSampling rate : 48.0 KHzBit depth : 16 bitsCompression mode : LossyStream size : 104 MiB (1%)Title : Одноголосый закадровый | Вартан Дохалов (VHS)Language : RussianDefault : NoForced : No
Audio #6ID : 7Format : AC-3Format/Info : Audio Coding 3Mode extension : CM (complete main)Format settings, Endianness : BigCodec ID : A_AC3Duration : 1h 15mnBit rate mode : ConstantBit rate : 192 KbpsChannel(s) : 2 channelsChannel positions : Front: L RSampling rate : 48.0 KHzBit depth : 16 bitsCompression mode : LossyStream size : 104 MiB (1%)Title : Одноголосый закадровый | Василий Горчаков (VHS)Language : RussianDefault : NoForced : No
Audio #7ID : 8Format : AC-3Format/Info : Audio Coding 3Mode extension : CM (complete main)Format settings, Endianness : BigCodec ID : A_AC3Duration : 1h 15mnBit rate mode : ConstantBit rate : 192 KbpsChannel(s) : 2 channelsChannel positions : Front: L RSampling rate : 48.0 KHzBit depth : 16 bitsCompression mode : LossyStream size : 104 MiB (1%)Title : Одноголосый закадровый | Антон Пронин (VHS)Language : RussianDefault : NoForced : No
Audio #8ID : 9Format : AC-3Format/Info : Audio Coding 3Mode extension : CM (complete main)Format settings, Endianness : BigCodec ID : A_AC3Duration : 1h 15mnBit rate mode : ConstantBit rate : 192 KbpsChannel(s) : 1 channelChannel positions : Front: CSampling rate : 48.0 KHzBit depth : 16 bitsCompression mode : LossyStream size : 104 MiB (1%)Title : Багатоголосий закадровий | "Новий канал"Language : UkrainianDefault : NoForced : No
Audio #9ID : 10Format : AC-3Format/Info : Audio Coding 3Mode extension : CM (complete main)Format settings, Endianness : BigCodec ID : A_AC3Duration : 1h 15mnBit rate mode : ConstantBit rate : 192 KbpsChannel(s) : 1 channelChannel positions : Front: CSampling rate : 48.0 KHzBit depth : 16 bitsCompression mode : LossyStream size : 104 MiB (1%)Title : Двоголосий закадровий | "Гамма"Language : UkrainianDefault : NoForced : No
Audio #10ID : 11Format : DTSFormat/Info : Digital Theater SystemsMode : 16Format settings, Endianness : BigCodec ID : A_DTSDuration : 1h 15mnBit rate mode : ConstantBit rate : 1 509 KbpsChannel(s) : 6 channelsChannel positions : Front: L C R, Side: L R, LFESampling rate : 48.0 KHzBit depth : 24 bitsCompression mode : LossyStream size : 815 MiB (5%)Language : EnglishDefault : NoForced : No
Text #1ID : 12Format : UTF-8Codec ID : S_TEXT/UTF8Codec ID/Info : UTF-8 Plain TextLanguage : RussianDefault : NoForced : No
Text #2ID : 13Format : UTF-8Codec ID : S_TEXT/UTF8Codec ID/Info : UTF-8 Plain TextTitle : SDHLanguage : EnglishDefault : NoForced : No
Menu00:00:00.000 : :01. Main Titles00:03:47.894 : :02. Afraid00:07:56.224 : :03. The Library00:12:48.559 : :04. An Illustration00:16:47.005 : :05. Adventure00:19:19.907 : :06. Fantasy00:22:57.501 : :07. Horror00:31:02.443 : :08. To the Exit00:33:11.823 : :09. Captain Ahab00:36:15.797 : :10. Pirates00:39:46.884 : :11. Treasure Island00:45:45.826 : :12. The Library Card00:51:23.330 : :13. The Dragon00:57:08.216 : :14. Swallowed Whole00:59:34.737 : :15. The Pagemaster01:02:53.102 : :16. Back to the Presen01:05:08.696 : :17. He's Home!01:07:44.685 : :18. End Titles01:15:28.148 : :19. End

Скриншоты

RIP- -SOURCE Blu-ray-

_________________
Показать сообщения:    

Текущее время: Сегодня 04:43

Часовой пояс: GMT



Вы не можете начинать темы
Вы не можете отвечать на сообщения
Вы не можете редактировать свои сообщения
Вы не можете удалять свои сообщения
Вы не можете голосовать в опросах
Вы не можете прикреплять файлы к сообщениям
Вы не можете скачивать файлы