Важное объявление!
У Нас Все раздачи мультитрекерные, при нуле пиров в релизах, можете смело вставать на закачку!
 
Автор Сообщение

HUNTER

Стаж:
4 года 7 месяцев
Сообщений:
61460

Репутация: 101

[+] [-]
Вне форума [Профиль] [ЛС]

Повелитель зверей / The Beastmaster
Страна: США, Германия
Жанр: фэнтези, боевик, приключения
Год выпуска: 1982
Продолжительность: 01:58:28
-
Перевод 1: Авторский (одноголосый закадровый) Вартан Дохалов
Перевод 2: Авторский (одноголосый закадровый) Юрий Сербин
Перевод 3: Авторский (одноголосый закадровый) Константин Дьяконов
Перевод 4: Авторский (одноголосый закадровый) Александр Марченко
Cубтитры: английские Full
Оригинальная аудиодорожка: английский
-
Режиссер: Дон Коскарелли / Don Coscarelli
В ролях: Марк Сингер, Таня Робертс, Рип Торн, Джон Эймос, Джош Милрад, Род Лумис, Бен Хаммер, Ральф Стрейт, Билли Джейн, Джанет ДеМэй
-
Описание: Воин по имени Дар после того, как орда жестоких джанов уничтожила его родной посёлок, отправляется искать мести. Отмеченный знаком бога-зверя, он понимает язык птиц и животных, и его спутники — огромный ночной тигр, парочка хитрецов-хорьков и орёл — помогают ему не только сражаться с людьми, но и с неведомыми существами, обитающими в тёмных лесах и сырых подземельях.
-

-
Сэмпл: https://www.sendspace.com/file/3gohh6
-
Тип релиза: BDRemux 1080p
Контейнер: MKV
Видео: 1920x1080p (16:9), 23.976 fps, 23998 Kbps
Аудио 1: русский / AC3 / 2.0 / 48 kHz / 192 kbps / 16 bit || Дохалов
Аудио 2: русский / AC3 / 2.0 / 48 kHz / 192 kbps / 16 bit || Сербин
Аудио 3: русский / AC3 / 5.1 / 48 kHz / 448 kbps / 16 bit || Дьяконов
Аудио 4: русский / AC3 / 2.0 / 48 kHz / 192 kbps / 16 bit || Марченко
Аудио 5: английский / DTS-HD MA / 5.1 / 48 kHz / 2950 kbps / 24 bit || (DTS Core: 5.1, 48 kHz, 1509 kbps, 24-bit) ENG
Формат субтитров: softsub (SRT)
Главы: есть

Доп. информация

Скачано из сети, сборка была от MediaClub (был перепутан Дохалов с Марченко - неправильно подписаны - исправлено), английские субтитры отсюда http://rutracker.org/forum/viewtopic.php?t=4808878, 3-ая русская зв. дорожка отсюда http://rutracker.org/forum/viewtopic.php?t=4119236 и подогнана. Исходником для Сербина послужила дорожка от ochkarik1. Авторам спасибо.

MediaInfo

General
Unique ID : 191293500232782222807761043522163642254 (0x8FE9C9BC1ABD8A8A8C9828F3E6290F8E)
Complete name : C:\Users\ALEX\Downloads\Фильмы\HD\The Beastmaster.1982.BDRemux.1080p.4xRus.Eng.Sub.Chpt.mkv
Format : Matroska
Format version : Version 4 / Version 2
File size : 23.1 GiB
Duration : 1h 58mn
Overall bit rate mode : Variable
Overall bit rate : 27.9 Mbps
Encoded date : UTC 2014-08-30 16:04:03
Writing application : mkvmerge v6.6.0 ('The Edge Of The In Between') built on Dec 1 2013 17:55:00
Writing library : libebml v1.3.0 + libmatroska v1.4.1
Video
ID : 1
Format : AVC
Format/Info : Advanced Video Codec
Format profile : High@L4.1
Format settings, CABAC : Yes
Format settings, ReFrames : 4 frames
Codec ID : V_MPEG4/ISO/AVC
Duration : 1h 58mn
Bit rate mode : Variable
Maximum bit rate : 37.0 Mbps
Width : 1 920 pixels
Height : 1 080 pixels
Display aspect ratio : 16:9
Frame rate mode : Constant
Frame rate : 23.976 fps
Color space : YUV
Chroma subsampling : 4:2:0
Bit depth : 8 bits
Scan type : Progressive
Title : MediaClub
Language : English
Default : Yes
Forced : No
Audio #1
ID : 2
Format : AC-3
Format/Info : Audio Coding 3
Mode extension : CM (complete main)
Format settings, Endianness : Big
Codec ID : A_AC3
Duration : 1h 58mn
Bit rate mode : Constant
Bit rate : 192 Kbps
Channel(s) : 2 channels
Channel positions : Front: L R
Sampling rate : 48.0 KHz
Bit depth : 16 bits
Compression mode : Lossy
Stream size : 163 MiB (1%)
Title : AVO Дохалов
Language : Russian
Default : Yes
Forced : No
Audio #2
ID : 3
Format : AC-3
Format/Info : Audio Coding 3
Mode extension : CM (complete main)
Format settings, Endianness : Big
Codec ID : A_AC3
Duration : 1h 58mn
Bit rate mode : Constant
Bit rate : 192 Kbps
Channel(s) : 2 channels
Channel positions : Front: L R
Sampling rate : 48.0 KHz
Bit depth : 16 bits
Compression mode : Lossy
Stream size : 163 MiB (1%)
Title : AVO Сербин
Language : Russian
Default : No
Forced : No
Audio #3
ID : 4
Format : AC-3
Format/Info : Audio Coding 3
Mode extension : CM (complete main)
Format settings, Endianness : Big
Codec ID : A_AC3
Duration : 1h 58mn
Bit rate mode : Constant
Bit rate : 448 Kbps
Channel(s) : 6 channels
Channel positions : Front: L C R, Side: L R, LFE
Sampling rate : 48.0 KHz
Bit depth : 16 bits
Compression mode : Lossy
Stream size : 380 MiB (2%)
Title : AVO Дьяконов
Language : Russian
Default : No
Forced : No
Audio #4
ID : 5
Format : AC-3
Format/Info : Audio Coding 3
Mode extension : CM (complete main)
Format settings, Endianness : Big
Codec ID : A_AC3
Duration : 1h 58mn
Bit rate mode : Constant
Bit rate : 192 Kbps
Channel(s) : 2 channels
Channel positions : Front: L R
Sampling rate : 48.0 KHz
Bit depth : 16 bits
Compression mode : Lossy
Stream size : 163 MiB (1%)
Title : AVO Марченко
Language : Russian
Default : No
Forced : No
Audio #5
ID : 6
Format : DTS
Format/Info : Digital Theater Systems
Format profile : MA / Core
Mode : 16
Format settings, Endianness : Big
Codec ID : A_DTS
Duration : 1h 58mn
Bit rate mode : Variable
Bit rate : Unknown / 1 509 Kbps
Channel(s) : 6 channels
Channel positions : Front: L C R, Side: L R, LFE
Sampling rate : 48.0 KHz
Bit depth : 24 bits
Compression mode : Lossless / Lossy
Title : Original
Language : English
Default : No
Forced : No
Text
ID : 7
Format : UTF-8
Codec ID : S_TEXT/UTF8
Codec ID/Info : UTF-8 Plain Text
Title : Full
Language : English
Default : No
Forced : No
Menu
00:00:00.000 : en:Chapter 01
00:01:38.056 : en:Chapter 02
00:16:22.147 : en:Chapter 03
00:29:23.762 : en:Chapter 04
00:39:43.839 : en:Chapter 05
00:49:28.632 : en:Chapter 06
00:55:43.757 : en:Chapter 07
01:01:40.697 : en:Chapter 08
01:12:19.335 : en:Chapter 09
01:24:21.014 : en:Chapter 10
01:33:37.695 : en:Chapter 11
01:41:53.690 : en:Chapter 12
01:55:32.425 : en:Chapter 13

Скриншоты


_________________
Показать сообщения:    

Текущее время: Сегодня 03:03

Часовой пояс: GMT



Вы не можете начинать темы
Вы не можете отвечать на сообщения
Вы не можете редактировать свои сообщения
Вы не можете удалять свои сообщения
Вы не можете голосовать в опросах
Вы не можете прикреплять файлы к сообщениям
Вы не можете скачивать файлы
Наши партнеры: интернет магазин Ивановского трикотажа textilla.ru