Ивановский Торрент трекер
Яндекс.Погода
 

[Цитировать]
HUNTER

Повелители времени / Horizon. The Time Lords
Дата/Год выпуска: 1996
Страна: Великобритания
Жанр: Документальный
Продолжительность: 00:47:19
Перевод: Профессиональный (многоголосый закадровый)
Режиссер: Роб Сильвестр
Описание: Сегодня уже существуют научные теории, доказывающие возможность искривления пространства и времени в реальном физическом мире. Это позволяет задуматься о возможности путешествий во времени, ведь теоретически такое путешествие весьма вероятно.
Семпл: http://sendfile.su/1126841
качество: SATRip
формат: AVI
Видео: 704x528 (1.33:1), 25 fps, XviD MPEG-4 ~1845 kbps avg, 0.20 bit/pixel
Аудио: 44.100 kHz, MPEG Layer 3, 2 ch, ~128.00 kbps avg

MediaInfo

GeneralComplete name : C:\The Time Lords (1996).aviFormat : AVIFormat/Info : Audio Video InterleaveFile size : 672 MiBDuration : 47mn 19sOverall bit rate : 1 984 KbpsWriting library : VirtualDub build 35390/release
VideoID : 0Format : MPEG-4 VisualFormat profile : Advanced Simple@L5Format settings, BVOP : 2Format settings, QPel : NoFormat settings, GMC : No warppointsFormat settings, Matrix : Default (MPEG)Muxing mode : Packed bitstreamCodec ID : XVIDCodec ID/Hint : XviDDuration : 47mn 19sBit rate : 1 847 KbpsWidth : 704 pixelsHeight : 528 pixelsDisplay aspect ratio : 4:3Frame rate : 25.000 fpsColor space : YUVChroma subsampling : 4:2:0Bit depth : 8 bitsScan type : ProgressiveCompression mode : LossyBits/(Pixel*Frame) : 0.199Stream size : 625 MiB (93%)Writing library : XviD 64
AudioID : 1Format : MPEG AudioFormat version : Version 1Format profile : Layer 3Mode : Joint stereoMode extension : MS StereoCodec ID : 55Codec ID/Hint : MP3Duration : 47mn 19sBit rate mode : ConstantBit rate : 128 KbpsChannel(s) : 2 channelsSampling rate : 44.1 KHzCompression mode : LossyDelay relative to video : 15msStream size : 43.3 MiB (6%)Alignment : Split accross interleavesInterleave, duration : 40 ms (1.00 video frame)Interleave, preload duration : 500 ms

Скриншоты

Показать сообщения:    

Текущее время: 23-Окт 14:35

Часовой пояс: UTC - 1


Вы не можете начинать темы
Вы не можете отвечать на сообщения
Вы не можете редактировать свои сообщения
Вы не можете удалять свои сообщения
Вы не можете голосовать в опросах
Вы не можете прикреплять файлы к сообщениям
Вы не можете скачивать файлы

!ВНИМАНИЕ!
Сайт не предоставляет электронные версии произведений, а занимается лишь коллекционированием и каталогизацией ссылок, присылаемых и публикуемых на форуме нашими читателями. Если вы являетесь правообладателем какого-либо представленного материала и не желаете, чтобы ссылка на него находилась в нашем каталоге, свяжитесь с нами, и мы незамедлительно удалим ее. Файлы для обмена на трекере предоставлены пользователями сайта, и администрация не несет ответственности за их содержание. Просьба не заливать файлы, защищенные авторскими правами, а также файлы нелегального содержания!