Ивановский Торрент трекер
Яндекс.Погода
 

[Цитировать]
HUNTER

Победить темноту / Dark Victory
Страна: США
Жанр: драма, мелодрама
Год выпуска: 1939
Продолжительность: 01:44:08
Перевод: Профессиональный (двухголосый закадровый) - Светла
Cубтитры: английские
Оригинальная аудиодорожка: английский
Режиссер: Эдмунд Гулдинг / Edmund Goulding
В ролях: Бетт Дэвис, Джордж Брент, Хамфри Богарт, Джеральдин Фицджералд, Рональд Рейган, Генри Треверс, Кора Уизерспун, Дороти Петерсон, Вирджиния Бриссак, Чарльз Ричман
Описание: Молодая красавица Джудит Трэйхерн находится в центре внимания окружающих, когда доктор Фредерик Стил ставит ей страшный диагноз — опухоль мозга. После операции между Джудит и Фредериком начинается роман. Но вскоре выясняется, что болезнь вернулась и на этот раз ничто уже не поможет…
Доп. информация:


За дорожку с переводом спасибо MaLLIeHbKa
Сэмпл: http://sendfile.su/1044676
Тип релиза: WEB-DL 720p
Контейнер: MKV
Видео: AVC, 982x720, L3.1, 23.976fps, 3877kbps
Аудио 1: Russian: AC3, 48000Hz, 2ch, 192kbps
Аудио 2: English: AC3, 48000Hz, 1ch, 192kbps - DVD
Аудио 3: English: AAC, 48000Hz, 2ch, 127kbps - WEB-DL
Аудио 4: English: AC3, 48000Hz, 2ch, 192kbps - commentary by Jim Ursini and Paul Clinton
Формат субтитров: softsub (SRT)

MediaInfo

Общее
Уникальный идентификатор : 232472707688591709521353448293820235630 (0xAEE49D6A05BE3C98A382971FEA437F6E)
Полное имя : T:\Dark Victory (WEB-DL 720p).mkv
Формат : Matroska
Версия формата : Version 4 / Version 2
Размер файла : 3,33 Гбайт
Продолжительность : 1 ч. 44 м.
Общий поток : 4580 Кбит/сек
Дата кодирования : UTC 2014-11-05 09:28:16
Программа кодирования : mkvmerge v6.9.1 ('Blue Panther') 64bit built on Apr 18 2014 18:23:38
Библиотека кодирования : libebml v1.3.0 + libmatroska v1.4.1
Видео
Идентификатор : 1
Формат : AVC
Формат/Информация : Advanced Video Codec
Профиль формата : High@L3.1
Параметр CABAC формата : Нет
Параметр ReFrames формата : 2 кадра
Идентификатор кодека : V_MPEG4/ISO/AVC
Продолжительность : 1 ч. 44 м.
Ширина : 982 пикселя
Высота : 720 пикселей
Соотношение сторон : 4:3
Режим частоты кадров : Постоянный
Частота кадров : 23,976 кадра/сек
Цветовое пространство : YUV
Субдискретизация насыщенности : 4:2:0
Битовая глубина : 8 бит
Тип развёртки : Прогрессивная
Язык : English
Default : Да
Forced : Нет
Основные цвета : BT.709
Характеристики трансфера : BT.709
Коэффициенты матрицы : BT.709
Аудио #1
Идентификатор : 2
Формат : AC-3
Формат/Информация : Audio Coding 3
Расширение режима : CM (complete main)
Параметр Endianness формата : Big
Идентификатор кодека : A_AC3
Продолжительность : 1 ч. 44 м.
Вид битрейта : Постоянный
Битрейт : 192 Кбит/сек
Каналы : 2 канала
Расположение каналов : Front: L R
Частота : 48,0 КГц
Битовая глубина : 16 бит
Метод сжатия : С потерями
Размер потока : 143 Мбайт (4%)
Заголовок : Светла
Язык : Russian
Default : Да
Forced : Нет
Аудио #2
Идентификатор : 3
Формат : AC-3
Формат/Информация : Audio Coding 3
Расширение режима : CM (complete main)
Параметр Endianness формата : Big
Идентификатор кодека : A_AC3
Продолжительность : 1 ч. 44 м.
Вид битрейта : Постоянный
Битрейт : 192 Кбит/сек
Каналы : 1 канал
Расположение каналов : Front: C
Частота : 48,0 КГц
Битовая глубина : 16 бит
Метод сжатия : С потерями
Размер потока : 143 Мбайт (4%)
Заголовок : DVD
Язык : English
Default : Нет
Forced : Нет
Аудио #3
Идентификатор : 4
Формат : AAC
Формат/Информация : Advanced Audio Codec
Профиль формата : LC
Идентификатор кодека : A_AAC
Продолжительность : 1 ч. 44 м.
Каналы : 2 канала
Расположение каналов : Front: L R
Частота : 48,0 КГц
Метод сжатия : С потерями
Заголовок : WEB-DL
Язык : English
Default : Нет
Forced : Нет
Аудио #4
Идентификатор : 5
Формат : AC-3
Формат/Информация : Audio Coding 3
Расширение режима : CM (complete main)
Параметр Endianness формата : Big
Идентификатор кодека : A_AC3
Продолжительность : 1 ч. 44 м.
Вид битрейта : Постоянный
Битрейт : 192 Кбит/сек
Каналы : 2 канала
Расположение каналов : Front: L R
Частота : 48,0 КГц
Битовая глубина : 16 бит
Метод сжатия : С потерями
Размер потока : 143 Мбайт (4%)
Заголовок : commentary by Jim Ursini and Paul Clinton
Язык : English
Default : Нет
Forced : Нет
Текст
Идентификатор : 6
Формат : UTF-8
Идентификатор кодека : S_TEXT/UTF8
Идентификатор кодека/Информация : UTF-8 Plain Text
Язык : English
Default : Нет
Forced : Нет
Меню
00:00:00.000 : en:Credits
00:00:51.000 : en:Rude Awakening
00:03:56.000 : en:Riding Accident
00:07:26.000 : en:More Than A Headache
00:09:54.000 : en:Appeal To Dr. Steele
00:14:36.000 : en:"I'm Absolutley Well."
00:21:02.000 : en:The Exam
00:26:06.000 : en:We've Got To Operate
00:28:47.000 : en:Fairview Hospital
00:33:01.000 : en:Long-Term Outlook
00:35:47.000 : en:Life Of The Party
00:40:41.000 : en:Telling Ann
00:45:50.000 : en:In Love
00:49:04.000 : en:Doctor's Dilema
00:52:32.000 : en:Suspicion
00:55:32.000 : en:Prognosis Negative
00:59:41.000 : en:Humoring The Patient
01:02:39.000 : en:Give Me Time For Tenderness
01:05:39.000 : en:Judy Rides Again
01:10:12.000 : en:Kindred Spirits
01:16:01.000 : en:Forever Judy
01:22:09.000 : en:Nothing And Everything
01:26:01.000 : en:Darker By The Minute
01:29:45.000 : en:Blind Devotion
01:35:29.000 : en:Dark Victory
01:37:57.000 : en:Hyacinths
01:40:54.000 : en:Perchance To Dream
01:43:32.000 : en:Cast List

Скриншоты

Показать сообщения:    

Текущее время: 23-Окт 07:10

Часовой пояс: UTC - 1


Вы не можете начинать темы
Вы не можете отвечать на сообщения
Вы не можете редактировать свои сообщения
Вы не можете удалять свои сообщения
Вы не можете голосовать в опросах
Вы не можете прикреплять файлы к сообщениям
Вы не можете скачивать файлы

!ВНИМАНИЕ!
Сайт не предоставляет электронные версии произведений, а занимается лишь коллекционированием и каталогизацией ссылок, присылаемых и публикуемых на форуме нашими читателями. Если вы являетесь правообладателем какого-либо представленного материала и не желаете, чтобы ссылка на него находилась в нашем каталоге, свяжитесь с нами, и мы незамедлительно удалим ее. Файлы для обмена на трекере предоставлены пользователями сайта, и администрация не несет ответственности за их содержание. Просьба не заливать файлы, защищенные авторскими правами, а также файлы нелегального содержания!