Победить темноту / Dark Victory (Эдмунд Гулдинг / Edmund Goulding) [1939 г., США, драма, мелодрама, BDRip 720p] DVO (Светла) + Original Eng + Sub (Rus, Eng, Fre, Spa) :: Ивановский Торрент трекер
Важное объявление!
У Нас Все раздачи мультитрекерные, при нуле пиров в релизах, можете смело вставать на закачку!
Статистика раздачи
Размер:     |    Зарегистрирован:     |    Скачан:     |   
Нет
 
     
 
 
Автор Сообщение

HUNTER

Стаж:
4 года 11 месяцев
Сообщений:
66077

Репутация: 101

[+] [-]
Вне форума [Профиль] [ЛС]

Победить темноту / Dark Victory-
Год выпуска: 1939
Страна: США
Жанр: драма, мелодрама
Продолжительность: 01:44:13
Перевод: Профессиональный (двухголосый закадровый) Светла
Оригинальная аудиодорожка: Английская
Cубтитры: Русские (iTunes), английские (для слабослышащих), французские, испанские-Режиссер: Эдмунд Гулдинг / Edmund Goulding
В ролях: Бетт Дэвис, Джордж Брент, Хамфри Богарт, Джеральдин Фицджералд, Рональд Рейган, Генри Треверс, Кора Уизерспун, Дороти Петерсон, Вирджиния Бриссак, Чарльз Ричман-Описание:
Молодая красавица Джудит Трэйхерн находится в центре внимания окружающих, когда доктор Фредерик Стил ставит ей страшный диагноз - опухоль мозга. После операции между Джудит и Фредериком начинается роман. Но вскоре выясняется, что болезнь вернулась и на этот раз ничто уже не поможет...- | IMDb | Сэмпл-Качество: BDRip 720p (HaB)
Контейнер: MKV
Видео: x264, 986x720 (1.37:1), 23.976 fps, 9985 kbps
Аудио 1: Русский AC3 2.0, 48 kHz, 192 kbps
Аудио 2: Английский FLAC 1.0, 48 kHz, 550 kbps
Аудио 3: Английский Vorbis 1.0, 48 kHz, 60 kbps — Комментарии

Скриншоты

Source vs. HaB vs. HD4U vs. WEB-DL





MI

nfo
RELEASE NAME....: Dark.Victory.1939.720p.BluRay.FLAC.x264-HaB
RELEASE SIZE....: 7.72 GiB
RUNTIME.........: 1h 44mn
VIDEO CODEC... .: x264, crf, High@L4.0
FRAMERATE.......: 23.976 fps
VIDEO BITRATE...: 9789 Kbps
RESOLUTION......: 986x720
AUDIO...........: English, FLAC 1.0, 550 Kbps
COMMENTARY......: by Film Historian James Ursini and CNN film critic Paul Clinton
SUBTITLES.......: English, French, Spanish
CHAPTERS........: Included
SOURCE..........: 1080p Blu-ray AVC DTS-HD MA 1.0-LAZERS - Golden Year 1939 Collection - Warner 2015
General
Unique ID : 174675576418610031276212088891920545866 (0x83694AD5565F0AAFBC28AB5A16EAF84A)
Complete name : Dark.Victory.1939.720p.BluRay.x264-HaB.mkv
Format : Matroska
Format version : Version 2
File size : 7.86 GiB
Duration : 1h 44mn
Overall bit rate mode : Variable
Overall bit rate : 10.8 Mbps
Movie name : Dark Victory / Победить темноту (1939) – RuTracker
Encoded date : UTC 2015-08-02 19:58:53
Writing application : mkvmerge v7.5.0 ('Glass Culture') 64bit built on Jan 4 2015 16:48:44
Writing library : libebml v1.3.1 + libmatroska v1.4.2
Attachements : cover.jpg
Video
ID : 1
Format : AVC
Format/Info : Advanced Video Codec
Format profile : High@L4.0
Format settings, CABAC : Yes
Format settings, ReFrames : 11 frames
Codec ID : V_MPEG4/ISO/AVC
Duration : 1h 44mn
Width : 986 pixels
Height : 720 pixels
Display aspect ratio : 4:3
Frame rate mode : Constant
Frame rate : 23.976 fps
Color space : YUV
Chroma subsampling : 4:2:0
Bit depth : 8 bits
Scan type : Progressive
Title : Dark.Victory.1939.720p.BluRay.FLAC.x264-HaB
Writing library : x264 core 146 r2538kMod 121396c
Encoding settings : cabac=1 / ref=11 / deblock=1:-3:-3 / analyse=0x3:0x133 / me=tesa / subme=11 / psy=1 / fade_compensate=0.00 / psy_rd=1.10:0.00 / mixed_ref=1 / me_range=16 / chroma_me=1 / trellis=2 / 8x8dct=1 / cqm=0 / deadzone=21,11 / fast_pskip=0 / chroma_qp_offset=-2 / threads=18 / lookahead_threads=4 / sliced_threads=0 / nr=0 / decimate=0 / interlaced=0 / bluray_compat=0 / constrained_intra=0 / fgo=0 / bframes=12 / b_pyramid=2 / b_adapt=2 / b_bias=0 / direct=3 / weightb=1 / open_gop=0 / weightp=2 / keyint=250 / keyint_min=23 / scenecut=40 / intra_refresh=0 / rc=crf / mbtree=0 / crf=19.9000 / qcomp=0.65 / qpmin=0 / qpmax=69 / qpstep=4 / ip_ratio=1.20 / pb_ratio=1.10 / aq=3:0.80
Language : English
Default : Yes
Forced : No
Audio #1
ID : 2
Format : AC-3
Format/Info : Audio Coding 3
Mode extension : CM (complete main)
Format settings, Endianness : Big
Codec ID : A_AC3
Duration : 1h 44mn
Bit rate mode : Constant
Bit rate : 192 Kbps
Channel(s) : 2 channels
Channel positions : Front: L R
Sampling rate : 48.0 KHz
Bit depth : 16 bits
Compression mode : Lossy
Stream size : 143 MiB (2%)
Title : DVO – Светла
Language : Russian
Default : Yes
Forced : No
Audio #2
ID : 3
Format : FLAC
Format/Info : Free Lossless Audio Codec
Codec ID : A_FLAC
Duration : 1h 44mn
Bit rate mode : Variable
Channel(s) : 1 channel
Sampling rate : 48.0 KHz
Bit depth : 24 bits
Title : Original
Writing library : libFLAC 1.2.1 (UTC 2007-09-17)
Language : English
Default : No
Forced : No
Audio #3
ID : 4
Format : Vorbis
Format settings, Floor : 1
Codec ID : A_VORBIS
Duration : 1h 44mn
Bit rate mode : Variable
Bit rate : 60.0 Kbps
Channel(s) : 1 channel
Sampling rate : 48.0 KHz
Compression mode : Lossy
Stream size : 44.7 MiB (1%)
Title : Commentary by Film Historian James Ursini and CNN film critic Paul Clinton
Writing library : aoTuV
Language : English
Default : No
Forced : No
Text #1
ID : 5
Format : UTF-8
Codec ID : S_TEXT/UTF8
Codec ID/Info : UTF-8 Plain Text
Title : iTunes
Language : Russian
Default : No
Forced : No
Text #2
ID : 6
Format : UTF-8
Codec ID : S_TEXT/UTF8
Codec ID/Info : UTF-8 Plain Text
Language : English
Default : No
Forced : No
Text #3
ID : 7
Format : UTF-8
Codec ID : S_TEXT/UTF8
Codec ID/Info : UTF-8 Plain Text
Title : SDH
Language : English
Default : No
Forced : No
Text #4
ID : 8
Format : UTF-8
Codec ID : S_TEXT/UTF8
Codec ID/Info : UTF-8 Plain Text
Language : French
Default : No
Forced : No
Text #5
ID : 9
Format : UTF-8
Codec ID : S_TEXT/UTF8
Codec ID/Info : UTF-8 Plain Text
Language : Spanish
Default : No
Forced : No
Menu
00:00:00.000 : en:Chapter 01
00:09:53.009 : en:Chapter 02
00:15:53.118 : en:Chapter 03
00:26:05.188 : en:Chapter 04
00:35:47.562 : en:Chapter 05
00:45:51.165 : en:Chapter 06
00:55:33.747 : en:Chapter 07
01:05:41.562 : en:Chapter 08
01:15:56.593 : en:Chapter 09
01:22:11.927 : en:Chapter 10
01:32:28.376 : en:Chapter 11
01:43:35.626 : en:Chapter 12

_________________
Показать сообщения:    

Текущее время: Сегодня 05:09

Часовой пояс: GMT



Вы не можете начинать темы
Вы не можете отвечать на сообщения
Вы не можете редактировать свои сообщения
Вы не можете удалять свои сообщения
Вы не можете голосовать в опросах
Вы не можете прикреплять файлы к сообщениям
Вы не можете скачивать файлы